Торрент файл
скачать торрент магнет ссылка Добавлен: 12 сен 2017, 12:22
Размер: 3.43 ГБ
Сидеров: 61
Личеров: 19
Статус: (salma3)
Автор

СообщениеДобавлено: 12 сен 2017, 12:22 

В сети
Супермодератор
Аватара пользователя
Дата регистрации:
15 фев 2012, 16:44
Возраст: 28
Спасибо: 7060 / 2147
Сообщения: 59074
Год выхода: 1991
Жанр: драма, приключения
Режиссер: Рэндал Клайзер

В ролях: Клаус Мария Брандауэр, Итан Хоук, Сеймур Кэссел, Сьюзэн Хоган, Джеймс Римар, Билл Моусли, Клинт Янгрин, Пий Сэвадж, Аарон Хотч, Чарльз Джимми ст.

Описание: История о волке Белый клык, который остался сиротой, после того как охотник убил его мать и юноше по имени Джек, прибывшем на Клондайк во времена Золотой Лихорадки на участок, оставленный ему в наследство отцом… Джек и Белый Клык то встречаются, то расстаются, то вновь обретают друг друга. Эта захватывающая история дружбы мальчика и волка будет интересна мальчишкам, увлекающимся приключениями.



Страна: США
Продолжительность: 01:48:32
Перевод: Профессиональный (Многоголосый, Закадровый) (iTunes Russia)

Файл
Формат: MKV
Качество: WEB-DL 720p
Видео: 1280x692 (1.85:1), 23.976 fps, 3831 kbps, 0.180 bit/pixel
Аудио #1: AAC, 2 ch, 106 kbps (Многоголосый iTunes Russia)
Аудио #2: AAC, 2 ch, 128 kbps (Английский Оригинал)
Аудио #3: AC-3, 6 ch, 384 kbps (Английский Оригинал)
Субтитры: Английские (SDH)
Навигация: Есть

Семпл


General
Unique ID : 181490520699902007910779316989446650098 (0x8889CD872C78E454B525128B1D3CF8F2)
Complete name : White.Fang.1991.WEB.DL.720p.P.mkv
Format : Matroska
Format version : Version 2
File size : 3.43 GiB
Duration : 1h 48mn
Overall bit rate : 4 529 Kbps
Encoded date : UTC 2017-09-11 17:05:09
Writing application : mkvmerge v5.6.0 ('Kenya Kane') built on May 27 2012 16:44:04
Writing library : libebml v1.2.3 + libmatroska v1.3.0
Attachements : Cover 1.jpg / Cover 2.jpg

Video
ID : 1
Format : AVC
Format/Info : Advanced Video Codec
Format profile : High@L3.1
Format settings, CABAC : No
Format settings, ReFrames : 2 frames
Format settings, GOP : N=1
Codec ID : V_MPEG4/ISO/AVC
Duration : 1h 48mn
Bit rate : 3 831 Kbps
Width : 1 280 pixels
Height : 692 pixels
Display aspect ratio : 1.85:1
Frame rate mode : Constant
Frame rate : 23.976 fps
Color space : YUV
Chroma subsampling : 4:2:0
Bit depth : 8 bits
Scan type : Progressive
Bits/(Pixel*Frame) : 0.180
Stream size : 2.90 GiB (98%)
Language : English
Default : Yes
Forced : No
Color primaries : BT.709
Transfer characteristics : BT.709
Matrix coefficients : BT.709
Color range : Limited

Audio #1
ID : 2
Format : AAC
Format/Info : Advanced Audio Codec
Format profile : HE-AAC / LC
Codec ID : A_AAC
Duration : 1h 48mn
Channel(s) : 2 channels
Channel positions : Front: L R
Sampling rate : 88.2 KHz / 44.1 KHz
Compression mode : Lossy
Title : Многоголосый 2.0 (iTunes Russia)
Language : Russian
Default : Yes
Forced : No

Audio #2
ID : 3
Format : AAC
Format/Info : Advanced Audio Codec
Format profile : HE-AAC / LC
Codec ID : A_AAC
Duration : 1h 48mn
Channel(s) : 2 channels
Channel positions : Front: L R
Sampling rate : 88.2 KHz / 44.1 KHz
Compression mode : Lossy
Title : Английский 2.0 (Оригинал)
Language : English
Default : No
Forced : No

Audio #3
ID : 4
Format : AC-3
Format/Info : Audio Coding 3
Mode extension : CM (complete main)
Format settings, Endianness : Big
Codec ID : A_AC3
Duration : 1h 48mn
Bit rate mode : Constant
Bit rate : 384 Kbps
Channel(s) : 6 channels
Channel positions : Front: L C R, Side: L R, LFE
Sampling rate : 48.0 KHz
Bit depth : 16 bits
Compression mode : Lossy
Stream size : 298 MiB (8%)
Title : Английский 5.1 (Оригинал)
Language : English
Default : No
Forced : No

Text
ID : 5
Format : UTF-8
Codec ID : S_TEXT/UTF8
Codec ID/Info : UTF-8 Plain Text
Title : Английские (SDH)
Language : English
Default : No
Forced : No

Menu
00:00:00.000 : :Chapter 01
00:11:26.000 : :Chapter 02
00:18:17.000 : :Chapter 03
00:28:41.000 : :Chapter 04
00:41:13.000 : :Chapter 05
00:49:19.000 : :Chapter 06
00:58:25.000 : :Chapter 07
01:06:50.000 : :Chapter 08
01:16:58.000 : :Chapter 09
01:25:52.000 : :Chapter 10
01:30:41.000 : :Chapter 11
01:36:15.000 : :Chapter 12


_________________
Проголосуй за трекер Открытый торрент трекер - RUS-MEDIA.ORG

Проголосуй Открытый торрент трекер - RUS-MEDIA.ORG


Вернуться к началу
 Профиль Отправить личное сообщение  
 
   Похожие торренты   Автор   Торрент   Размер 
В этой теме нет новых непрочитанных сообщений. Белый Клык / White Fang [драма, приключения, 1991] WEBRip, Mvo

salma3

27 | 3

1.45 ГБ

В этой теме нет новых непрочитанных сообщений. Белый клык 2: Легенда о белом волке / White Fang 2: Myth of the White Wolf [приключения, семейный, 1994] WEB-DLRip-AVC, Mvo [iTunes]

salma3

35 | 23

2.56 ГБ

В этой теме нет новых непрочитанных сообщений. Белый клык 2: Легенда о белом волке / White Fang 2: Myth of the White Wolf [приключения, семейный, 1994] WEB-DL 720p, Mvo

salma3

176 | 84

3.38 ГБ

В этой теме нет новых непрочитанных сообщений. Белый Король / The White King [фантастика, драма, приключения, 2016] WEB-DLRip, Mvo

salma3

532 | 157

1.37 ГБ

В этой теме нет новых непрочитанных сообщений. Белый олеандр / White oleander [Драма, экранизация, 2002] WEB-DL 720p, Dub+Sub

salma3

120 | 31

3.82 ГБ

В этой теме нет новых непрочитанных сообщений. Белый бизон / Белый буйвол / The White Buffalo [Вестерн, 1977] BDRip-AVC, Mvo

salma3

6 | 3

2.33 ГБ

В этой теме нет новых непрочитанных сообщений. Белый призрак / White Ghost [Боевик, приключения, военный, 1988] BDRip-AVC, Mvo

salma3

62 | 40

2.78 ГБ


Начать новую тему Ответить на тему  [ 1 сообщение ] 




Для Мосгорсуда, Роскомнадзора и рекламодателей:: mosgorsud-torrent[собачка]yandex.ru
cron