Торрент файл
скачать торрент магнет ссылка Добавлен: 11 сен 2017, 21:06
Размер: 7.43 ГБ
Сидеров: 29
Личеров: 11
Статус: (salma3)
Автор

СообщениеДобавлено: 11 сен 2017, 21:06 

Не в сети
Супермодератор
Аватара пользователя
Дата регистрации:
15 фев 2012, 16:44
Возраст: 28
Спасибо: 7223 / 2147
Сообщения: 67642
Год выпуска: 2014
Жанр: Ужасы
Режиссер: Хейлар Гарсиа

Актеры: Джо Абпланалп, Трой Алан, Грехем Эммонс, Кэтрин Гулд, Майкл Хаскинс, Тэйлор Халетт, Луис Макдональд, Патрик Шеридан, Дженнифер Вильде

Описание:
Униженные подростки решают отомстить своим школьным обидчикам и проникают в трейлер к реднеку (деревенщине), чтобы украсть там оружие. Случайно, они находят люк в подвал, где деревенщина пытает своих пленников, и унижение подростков поднимается на новый уровень...



Производство: США
Продолжительность: 01:22:57
Перевод / озвучка: anton1 / Любительский, одноголосый [Хихикающий доктор]

Качество: BDRip 1080p
Видео: AVC/H.264, 9607 Кбит/с, 1920x824
Аудио 1: Русский (DTS, 6 ch, 1510 Кбит/с)
Аудио 2: Английский (DTS, 6 ch, 1509 Кбит/с)

Семпл

Общее
Уникальный идентификатор : 211200905923701136653450357574704275112 (0x9EE3D09D49997A3A8B5C249AD23B9EA8)
Полное имя : E:MMMMAn.American.Terror.2014.1080p.BDRip.x264.mkv
Формат : Matroska
Версия формата : Version 4 / Version 2
Размер файла : 7,43 Гбайт
Продолжительность : 1 ч. 22 м.
Общий поток : 12,8 Мбит/сек
Дата кодирования : UTC 2017-09-10 16:40:12
Программа кодирования : mkvmerge v6.9.1 ('Blue Panther') 64bit built on Apr 18 2014 18:23:38
Библиотека кодирования : libebml v1.3.0 + libmatroska v1.4.1

Видео
Идентификатор : 1
Формат : AVC
Формат/Информация : Advanced Video Codec
Профиль формата : High@L4.1
Параметр CABAC формата : Да
Параметр ReFrames формата : 5 кадров
Идентификатор кодека : V_MPEG4/ISO/AVC
Продолжительность : 1 ч. 22 м.
Битрейт : 9807 Кбит/сек
Ширина : 1920 пикселей
Высота : 824 пикселя
Соотношение сторон : 2,35:1
Режим частоты кадров : Постоянный
Частота кадров : 23,976 (24000/1001) кадра/сек
Цветовое пространство : YUV
Субдискретизация насыщенности : 4:2:0
Битовая глубина : 8 бит
Тип развёртки : Прогрессивная
Бит/(Пиксели*Кадры) : 0.259
Размер потока : 5,54 Гбайт (74%)
Библиотека кодирования : x264 core 148 r2692 64f4e24
Настройки программы : cabac=1 / ref=5 / deblock=1:-2:-2 / analyse=0x3:0x113 / me=umh / subme=8 / psy=1 / psy_rd=1.00:0.00 / mixed_ref=1 / me_range=16 / chroma_me=1 / trellis=1 / 8x8dct=1 / cqm=0 / deadzone=21,11 / fast_pskip=1 / chroma_qp_offset=-2 / threads=12 / lookahead_threads=2 / sliced_threads=0 / nr=0 / decimate=1 / interlaced=0 / bluray_compat=0 / constrained_intra=0 / bframes=3 / b_pyramid=2 / b_adapt=2 / b_bias=0 / direct=3 / weightb=1 / open_gop=0 / weightp=2 / keyint=240 / keyint_min=24 / scenecut=40 / intra_refresh=0 / rc_lookahead=50 / rc=2pass / mbtree=1 / bitrate=9807 / ratetol=1.0 / qcomp=0.60 / qpmin=0 / qpmax=69 / qpstep=4 / cplxblur=20.0 / qblur=0.5 / ip_ratio=1.40 / aq=1:1.00
Язык : English
Default : Да
Forced : Нет

Аудио #1
Идентификатор : 2
Формат : DTS
Формат/Информация : Digital Theater Systems
Режим : 16
Параметр Endianness формата : Big
Идентификатор кодека : A_DTS
Продолжительность : 1 ч. 22 м.
Вид битрейта : Постоянный
Битрейт : 1510 Кбит/сек
Каналы : 6 каналов
Расположение каналов : Front: L C R, Side: L R, LFE
Частота : 48,0 КГц
Частота кадров : 93,750 кадра/сек (512 spf)
Битовая глубина : 24 бит
Метод сжатия : С потерями
Размер потока : 896 Мбайт (12%)
Заголовок : xixidoktor
Язык : Russian
Default : Да
Forced : Нет

Аудио #2
Идентификатор : 3
Формат : DTS
Формат/Информация : Digital Theater Systems
Режим : 16
Параметр Endianness формата : Big
Идентификатор кодека : A_DTS
Продолжительность : 1 ч. 22 м.
Вид битрейта : Постоянный
Битрейт : 1509 Кбит/сек
Каналы : 6 каналов
Расположение каналов : Front: L C R, Side: L R, LFE
Частота : 48,0 КГц
Частота кадров : 93,750 кадра/сек (512 spf)
Битовая глубина : 24 бит
Метод сжатия : С потерями
Размер потока : 895 Мбайт (12%)
Заголовок : original
Язык : English
Default : Нет
Forced : Нет

Меню
00:00:00.000 : en:00:00:00.000
00:10:00.600 : en:00:10:00.600
00:20:01.200 : en:00:20:01.200
00:30:01.800 : en:00:30:01.800
00:40:02.400 : en:00:40:02.400
00:50:03.000 : en:00:50:03.000
01:00:03.600 : en:01:00:03.600
01:10:04.200 : en:01:10:04.200





_________________
Проголосуй за трекер Открытый торрент трекер - RUS-MEDIA.ORG

Проголосуй Открытый торрент трекер - RUS-MEDIA.ORG


Вернуться к началу
 Профиль Отправить личное сообщение  
 
   Похожие торренты   Автор   Торрент   Размер 
В этой теме нет новых непрочитанных сообщений. Американский террор / An American Terror [Ужасы, 2014] HDRip, Avo

salma3

95 | 21

757.26 МБ

В этой теме нет новых непрочитанных сообщений. Финальный террор / The Final Terror [ужасы, 1983] BDRip 1080p, Dvo+Sub

salma3

50 | 28

6.69 ГБ

В этой теме нет новых непрочитанных сообщений. Финальный террор / The Final Terror [ужасы, 1983] HDRip, Dvo

salma3

51 | 27

1.49 ГБ

В этой теме нет новых непрочитанных сообщений. Амитивилль: Террор / Amityville Terror [ужасы, 2016] WEB-DLRip, Mvo

salma3

986 | 53

1.37 ГБ

В этой теме нет новых непрочитанных сообщений. Террор / The Terror [2018] (Сезон 1 , Серия 1-10 из 10) (Милантс, Эдвард Бергер) [Ужасы, драма , WEB-DLRip][1080p][LostFilm+NewStudiо+AlexFilm+ProfixMedia+Kubik V Kube+Jaskier+Eng]+[Subs ENG+Rus]

Враг Нароода

1 | 3

38.09 ГБ

В этой теме нет новых непрочитанных сообщений. Беспредельный террор / Terror Firmer [ужасы, триллер, комедия, 1999] DVD5, Dvo

salma3

20 | 9

3.93 ГБ

В этой теме нет новых непрочитанных сообщений. Американский бизон / American Buffalo [драма, 1996] BDRip 1080p, Dvo

salma3

30 | 8

7.75 ГБ


Начать новую тему Ответить на тему  [ 1 сообщение ] 




Для Мосгорсуда, Роскомнадзора и рекламодателей:: mosgorsud-torrent[собачка]yandex.ru
cron