Торрент файл
скачать торрент магнет ссылка Добавлен: 10 сен 2017, 15:24
Размер: 11.5 ГБ
Сидеров: 10
Личеров: 4
Статус: (salma3)
Автор

СообщениеДобавлено: 10 сен 2017, 15:24 

Не в сети
Супермодератор
Аватара пользователя
Дата регистрации:
15 фев 2012, 16:44
Возраст: 28
Спасибо: 6672 / 2146
Сообщения: 46181
Год выхода: 1978
Жанр: комедия, криминал, мелодрама, вестерн
Режиссер: Джек Николсон / Jack Nicholson

В ролях: Джек Николсон, Мэри Стинберген, Кристофер Ллойд, Джон Белуши, Вероника Картрайт, Ричард Брэдфорд, Джеф Моррис, Дэнни ДеВито, Трейси Уолтер, Джералд Х. Рейнольдс

О фильме:
Уголовник-неудачник Генри Мун был пойман отрядом охотников за преступниками и приговорен к повешенью. Суровые законы Дикого Запада не оставляли бедолаге Генри надежды на помилование, и страшный час казни был уже близок. Существовала лишь одна, самая невероятная возможность: в те времена обреченного на смерть могла спасти лишь… незамужняя женщина! Эта женщина должна была пообещать суду взять злодея «на поруки» и, что самое главное, выйти за него замуж!



Страна: США
Продолжительность: 01:48:42
Перевод: Перевод: Профессиональный (многоголосый закадровый) СТС
Перевод 2: Профессиональный (многоголосый закадровый) Paramount Channel
Перевод 3: Профессиональный (двухголосый закадровый) Премьер
Перевод 4: Авторский (одноголосый закадровый) Ю. Живов

Файл
Кодек: h.264
Качество: WEB-DL 1080p
Видео: 1920x1080, 16:9, 14100 kbps, 23.976 fps
Звук:
Аудио: Русский / многоголосый закадровый (СТС), русский, AC3, 2 ch, 48.0 kHZ, 192 kbps
Аудио 2: Русский / многоголосый закадровый (Paramount Channel), русский, AC3, 2 ch, 48.0 kHZ, 192 kbps
Аудио 3: Русский / двухголосый закадровый (Премьер), русский, AC3, 2 ch, 48.0 kHZ, 192 kbps
Аудио 4: Русский / одноголосый закадровый (Ю. Живов), русский, AC3, 2 ch, 48.0 kHZ, 192 kbps
Аудио 5: Английский, AC3, 2 ch, 48.0 kHZ, 224 kbps
Субтитры: английские (SRT)

Семпл

General
Unique ID : 201740145944260718027583901873686139804 (0x97C5BD226256C84FA6D9E5A7650B539C)
Complete name : D:DownloadsGoin.South.1978.WEB-DL.1080p.mkv
Format : Matroska
Format version : Version 4 / Version 2
File size : 11.5 GiB
Duration : 1 h 48 min
Overall bit rate mode : Variable
Overall bit rate : 15.1 Mb/s
Encoded date : UTC 2017-09-10 10:06:57
Writing application : mkvmerge v15.0.0 ('Duel with the Devil') 64-bit
Writing library : libebml v1.3.5 + libmatroska v1.4.5

Video
ID : 1
Format : AVC
Format/Info : Advanced Video Codec
Format profile : High@L4
Format settings, CABAC : Yes
Format settings, ReFrames : 4 frames
Codec ID : V_MPEG4/ISO/AVC
Duration : 1 h 48 min
Bit rate mode : Variable
Bit rate : 14.1 Mb/s
Maximum bit rate : 15.0 Mb/s
Width : 1 920 pixels
Height : 1 080 pixels
Display aspect ratio : 16:9
Frame rate mode : Constant
Frame rate : 23.976 (24000/1001) FPS
Color space : YUV
Chroma subsampling : 4:2:0
Bit depth : 8 bits
Scan type : Progressive
Bits/(Pixel*Frame) : 0.284
Stream size : 10.7 GiB (93%)
Default : Yes
Forced : No
Color range : Limited
Color primaries : BT.709
Transfer characteristics : BT.709
Matrix coefficients : BT.709

Audio #1
ID : 2
Format : AC-3
Format/Info : Audio Coding 3
Format settings, Endianness : Big
Codec ID : A_AC3
Duration : 1 h 48 min
Bit rate mode : Constant
Bit rate : 192 kb/s
Channel(s) : 2 channels
Channel positions : Front: L R
Sampling rate : 48.0 kHz
Frame rate : 31.250 FPS (1536 spf)
Bit depth : 16 bits
Compression mode : Lossy
Stream size : 149 MiB (1%)
Title : Профессиональный (многоголосый закадровый) | СТС
Language : Russian
Service kind : Complete Main
Default : Yes
Forced : No

Audio #2
ID : 3
Format : AC-3
Format/Info : Audio Coding 3
Format settings, Endianness : Big
Codec ID : A_AC3
Duration : 1 h 48 min
Bit rate mode : Constant
Bit rate : 192 kb/s
Channel(s) : 2 channels
Channel positions : Front: L R
Sampling rate : 48.0 kHz
Frame rate : 31.250 FPS (1536 spf)
Bit depth : 16 bits
Compression mode : Lossy
Stream size : 149 MiB (1%)
Title : Профессиональный (многоголосый закадровый) | Paramount Channel
Language : Russian
Service kind : Complete Main
Default : No
Forced : No

Audio #3
ID : 4
Format : AC-3
Format/Info : Audio Coding 3
Format settings, Endianness : Big
Codec ID : A_AC3
Duration : 1 h 48 min
Bit rate mode : Constant
Bit rate : 192 kb/s
Channel(s) : 2 channels
Channel positions : Front: L R
Sampling rate : 48.0 kHz
Frame rate : 31.250 FPS (1536 spf)
Bit depth : 16 bits
Compression mode : Lossy
Stream size : 149 MiB (1%)
Title : Профессиональный (двухголосый закадровый) | Премьер
Language : Russian
Service kind : Complete Main
Default : No
Forced : No

Audio #4
ID : 5
Format : AC-3
Format/Info : Audio Coding 3
Format settings, Endianness : Big
Codec ID : A_AC3
Duration : 1 h 48 min
Bit rate mode : Constant
Bit rate : 192 kb/s
Channel(s) : 2 channels
Channel positions : Front: L R
Sampling rate : 48.0 kHz
Frame rate : 31.250 FPS (1536 spf)
Bit depth : 16 bits
Compression mode : Lossy
Stream size : 149 MiB (1%)
Title : Авторский (одноголосый закадровый) | Ю. Живов
Language : Russian
Service kind : Complete Main
Default : No
Forced : No

Audio #5
ID : 6
Format : E-AC-3
Format/Info : Enhanced Audio Coding 3
Format settings, Endianness : Big
Codec ID : A_EAC3
Duration : 1 h 48 min
Bit rate mode : Constant
Bit rate : 224 kb/s
Channel(s) : 2 channels
Channel positions : Front: L R
Sampling rate : 48.0 kHz
Frame rate : 187.500 FPS (256 spf)
Compression mode : Lossy
Stream size : 174 MiB (1%)
Language : English
Service kind : Complete Main
Default : No
Forced : No

Text
ID : 7
Format : UTF-8
Codec ID : S_TEXT/UTF8
Codec ID/Info : UTF-8 Plain Text
Duration : 1 h 44 min
Bit rate : 43 b/s
Count of elements : 1431
Stream size : 33.2 KiB (0%)
Language : English
Default : No
Forced : No


_________________
Проголосуй за трекер Открытый торрент трекер - RUS-MEDIA.ORG

Проголосуй Открытый торрент трекер - RUS-MEDIA.ORG



реклама партнёра


Вернуться к началу
 Профиль Отправить личное сообщение  
 
   Похожие торренты   Автор   Торрент   Размер 
В этой теме нет новых непрочитанных сообщений. На юг / Goin' South [комедия, мелодрама, вестерн, 1978] HDTVRip 1080p, Mvo+Sub

salma3

0 | 0

7.91 ГБ

В этой теме нет новых непрочитанных сообщений. С полудня до трех / From Noon Till Three [Мелодрама, комедия, вестерн, 1976] BDRemux 1080p, Dvo

salma3

30 | 48

11.89 ГБ

В этой теме нет новых непрочитанных сообщений. Ванда Невада / Wanda Nevada [мелодрама, комедия, детектив, вестерн, 1979] BDRip 1080p, Dvo

salma3

33 | 19

9.29 ГБ

В этой теме нет новых непрочитанных сообщений. Конвейер / Blue Collar [Драма, криминал, 1978] BDRemux 1080p, Mvo

salma3

7 | 2

31.44 ГБ

В этой теме нет новых непрочитанных сообщений. Смерть на Ниле / Death on the Nile [драма, криминал, детектив, 1978] BDRip 1080p, Dub

salma3

7 | 6

15.16 ГБ

В этой теме нет новых непрочитанных сообщений. Не грози Южному Централу, попивая сок у себя в квартале / Don`t Be a Menace to South Centr [Комедия, криминал, пародия, 1996] HDRip-AVC, Avo

salma3

0 | 0

741.83 МБ

В этой теме нет новых непрочитанных сообщений. Полуночный экспресс / Midnight Express [триллер, драма, криминал, биография, 1978] BDRemux 1080p, Dub+Mvo+Avo

salma3

4 | 11

28.09 ГБ


Начать новую тему Ответить на тему  [ 1 сообщение ] 




Для Мосгорсуда, Роскомнадзора и рекламодателей:: mosgorsud-torrent[собачка]yandex.ru