Торрент файл
скачать торрент магнет ссылка Добавлен: 07 сен 2017, 11:13
Размер: 12 ГБ
Сидеров: 10
Личеров: 37
Статус: (salma3)
Автор

СообщениеДобавлено: 07 сен 2017, 11:13 

Не в сети
Супермодератор
Аватара пользователя
Дата регистрации:
15 фев 2012, 16:44
Возраст: 29
Спасибо: 7380 / 2147
Сообщения: 76322
Год выхода: 1990
Жанр: боевик, триллер, комедия
Режиссер: Джон Бэдэм

В ролях: Мэл Гибсон, Голди Хоун, Дэвид Кэрредин, Билл Дьюк, Стивен Тоболовски, Джоан Северанс, Гарри Цезар, Джефф Кори, Алекс Брухански, Джон Пайпер-Фергюсон

О фильме:
Дела Рика Джармина, живущего тайной жизнью по специально разработанной ФБР программе защиты свидетелей, складывается не лучшим образом. Дело в том, что пятнадцать лет назад он дал показания против полицейского, промышляющего торговлей наркотиками, что позволило усадить негодяя за решетку. Преступник, отсидевший свой срок, решает отомстить «стукачу» и начинает охоту на Джармина. Случайно Рик сталкивается с Мэриэнн Грэйвз, своей бывшей невестой. Мэриэнн, естественно, узнает его, что облегчает задачу убийцам, следующим за Джармином по пятам. Теперь бывшим возлюбленным вместе предстоит спасаться от злодеев, но именно это помогает им вернуть утраченную любовь.



Страна: США
Продолжительность: 01:50:31
Перевод: Профессиональный (многоголосый, закадровый) R5 + Профессиональный (многоголосый, закадровый) Neoclassica + Профессиональный (многоголосый, закадровый) CTC + Профессиональный (двухголосый, закадровый) HTB + Профессиональный (двухголосый, закадровый) HTB+ + Профессиональный (двухголосый, закадровый) OPT + Профессиональный (двухголосый, закадровый) Премьер Видео Фильм + Авторский (одноголосый, закадровый) А.Гаврилов + Авторский (одноголосый, закадровый) М.Иванов + Авторский (одноголосый, закадровый) А.Михалёв + Авторский (одноголосый, закадровый) М.Яроцкий + Любительский (одноголосый, закадровый) Неизвестный

Файл
Качество: BDRip 720p
Формат: Matroska
Видео: AVC, 1280x544 (2.35:1), 23.976 fps, 12.7 Mbps (0.761 bit/pixel)
Аудио #1: AC-3, 48.0 KHz, 2 ch, 192 Kbps, CBR (Russian) |Многоголосый закадровый, R5|
Аудио #2: AC-3, 48.0 KHz, 2 ch, 192 Kbps, CBR (Russian) |Многоголосый закадровый, Neoclassica|
Аудио #3: AC-3, 48.0 KHz, 2 ch, 192 Kbps, CBR (Russian) |Многоголосый закадровый, CTC|
Аудио #4: AC-3, 48.0 KHz, 2 ch, 192 Kbps, CBR (Russian) |Многоголосый закадровый, HTB|
Аудио #5: AC-3, 48.0 KHz, 2 ch, 192 Kbps, CBR (Russian) |Двухголосый закадровый, Премьер Видео Фильм|
Аудио #6: AC-3, 48.0 KHz, 2 ch, 192 Kbps, CBR (Russian) |Двухголосый закадровый, OPT|
Аудио #7: AC-3, 48.0 KHz, 2 ch, 192 Kbps, CBR (Russian) |Двухголосый, HTB+|
Аудио #8: AC-3, 48.0 KHz, 2 ch, 192 Kbps, CBR (Russian) |Авторский, А.Гаврилов|
Аудио #9: AC-3, 48.0 KHz, 2 ch, 192 Kbps, CBR (Russian) |Авторский, М.Иванов|
Аудио #10: AC-3, 48.0 KHz, 2 ch, 192 Kbps, CBR (Russian) |Авторский, А.Михалёв|
Аудио #11: AC-3, 48.0 KHz, 2 ch, 224 Kbps, CBR (Russian) |Авторский, М.Яроцкий|
Аудио #12: AC-3, 48.0 KHz, 2 ch, 192 Kbps, CBR (Russian) |Любительский, Неизвестный|
Аудио #13: AC-3, 48.0 KHz, 2 ch, 192 Kbps, CBR (English)
Субтитры: Русский, английский

Релиз: K.E.N &

[*]Несмотря на то, что сюжет фильма развивается исключительно в США, съемки фильма проходили в основном в Канаде, в провинции Британская Колумбия. Единственным местом в США, где проводились съемки, был Детройт (сцена с отелем Four Seasons).
Формат : Matroska
Версия формата : Version 2
Размер файла : 12,0 Гбайт
Продолжительность : 1 ч. 50 м.
Общий поток : 15,5 Мбит/сек
Дата кодирования : UTC 2017-05-10 20:51:25
Программа кодирования : mkvmerge v5.3.0 ('I could have danced') built on Feb 9 2012 10:38:07
Библиотека кодирования : libebml v1.2.3 + libmatroska v1.3.0
Attachments : poster (8).jpg

Видео
Идентификатор : 1
Формат : AVC
Формат/Информация : Advanced Video Codec
Профиль формата : High@L4.1
Параметр CABAC формата : Да
Параметр ReFrames формата : 11 кадров
Идентификатор кодека : V_MPEG4/ISO/AVC
Продолжительность : 1 ч. 50 м.
Битрейт : 12,7 Мбит/сек
Ширина : 1280 пикселей
Высота : 544 пикселя
Соотношение сторон : 2,35:1
Режим частоты кадров : Постоянный
Частота кадров : 23,976 (24000/1001) кадра/сек
Цветовое пространство : YUV
Субдискретизация насыщенности : 4:2:0
Битовая глубина : 8 бит
Тип развёртки : Прогрессивная
Бит/(Пиксели*Кадры) : 0.761
Размер потока : 9,81 Гбайт (82%)
Библиотека кодирования : x264 core 146 r2538 121396c
Настройки программы : cabac=1 / ref=11 / deblock=1:-3:-3 / analyse=0x3:0x133 / me=umh / subme=11 / psy=1 / psy_rd=1.00:0.00 / mixed_ref=1 / me_range=32 / chroma_me=1 / trellis=2 / 8x8dct=1 / cqm=0 / deadzone=21,11 / fast_pskip=0 / chroma_qp_offset=-2 / threads=12 / lookahead_threads=3 / sliced_threads=0 / nr=0 / decimate=1 / interlaced=0 / bluray_compat=0 / constrained_intra=0 / bframes=10 / b_pyramid=2 / b_adapt=2 / b_bias=0 / direct=1 / weightb=1 / open_gop=0 / weightp=2 / keyint=240 / keyint_min=23 / scenecut=40 / intra_refresh=0 / rc=crf / mbtree=0 / crf=18.0 / qcomp=0.60 / qpmin=0 / qpmax=69 / qpstep=4 / ip_ratio=1.40 / pb_ratio=1.30 / aq=2:1.00
Язык : English
Default : Да
Forced : Нет

Аудио #1
Идентификатор : 2
Формат : AC-3
Формат/Информация : Audio Coding 3
Расширение режима : CM (complete main)
Параметр Endianness формата : Big
Идентификатор кодека : A_AC3
Продолжительность : 1 ч. 50 м.
Вид битрейта : Постоянный
Битрейт : 192 Кбит/сек
Каналы : 2 канала
Расположение каналов : Front: L R
Частота : 48,0 КГц
Частота кадров : 31,250 кадров/сек (1536 spf)
Битовая глубина : 16 бит
Метод сжатия : С потерями
Размер потока : 152 Мбайт (1%)
Заголовок : Профессиональный многоголосый (R5)
Язык : Russian
Default : Да
Forced : Нет

Аудио #2
Идентификатор : 3
Формат : AC-3
Формат/Информация : Audio Coding 3
Расширение режима : CM (complete main)
Параметр Endianness формата : Big
Идентификатор кодека : A_AC3
Продолжительность : 1 ч. 50 м.
Вид битрейта : Постоянный
Битрейт : 192 Кбит/сек
Каналы : 2 канала
Расположение каналов : Front: L R
Частота : 48,0 КГц
Частота кадров : 31,250 кадров/сек (1536 spf)
Битовая глубина : 16 бит
Метод сжатия : С потерями
Размер потока : 152 Мбайт (1%)
Заголовок : Профессиональный многоголосый (Неоклассика)
Язык : Russian
Default : Нет
Forced : Нет

Аудио #3
Идентификатор : 4
Формат : AC-3
Формат/Информация : Audio Coding 3
Расширение режима : CM (complete main)
Параметр Endianness формата : Big
Идентификатор кодека : A_AC3
Продолжительность : 1 ч. 50 м.
Вид битрейта : Постоянный
Битрейт : 192 Кбит/сек
Каналы : 2 канала
Расположение каналов : Front: L R
Частота : 48,0 КГц
Частота кадров : 31,250 кадров/сек (1536 spf)
Битовая глубина : 16 бит
Метод сжатия : С потерями
Размер потока : 152 Мбайт (1%)
Заголовок : Профессиональный многоголосый (СТС)
Язык : Russian
Default : Нет
Forced : Нет

Аудио #4
Идентификатор : 5
Формат : AC-3
Формат/Информация : Audio Coding 3
Расширение режима : CM (complete main)
Параметр Endianness формата : Big
Идентификатор кодека : A_AC3
Продолжительность : 1 ч. 50 м.
Вид битрейта : Постоянный
Битрейт : 192 Кбит/сек
Каналы : 2 канала
Расположение каналов : Front: L R
Частота : 48,0 КГц
Частота кадров : 31,250 кадров/сек (1536 spf)
Битовая глубина : 16 бит
Метод сжатия : С потерями
Размер потока : 152 Мбайт (1%)
Заголовок : Профессиональный многоголосый (НТВ)
Язык : Russian
Default : Нет
Forced : Нет

Аудио #5
Идентификатор : 6
Формат : AC-3
Формат/Информация : Audio Coding 3
Расширение режима : CM (complete main)
Параметр Endianness формата : Big
Идентификатор кодека : A_AC3
Продолжительность : 1 ч. 50 м.
Вид битрейта : Постоянный
Битрейт : 192 Кбит/сек
Каналы : 2 канала
Расположение каналов : Front: L R
Частота : 48,0 КГц
Частота кадров : 31,250 кадров/сек (1536 spf)
Битовая глубина : 16 бит
Метод сжатия : С потерями
Размер потока : 152 Мбайт (1%)
Заголовок : Профессиональный двухголосый (Премьер Видео)
Язык : Russian
Default : Нет
Forced : Нет

Аудио #6
Идентификатор : 7
Формат : AC-3
Формат/Информация : Audio Coding 3
Расширение режима : CM (complete main)
Параметр Endianness формата : Big
Идентификатор кодека : A_AC3
Продолжительность : 1 ч. 50 м.
Вид битрейта : Постоянный
Битрейт : 192 Кбит/сек
Каналы : 2 канала
Расположение каналов : Front: L R
Частота : 48,0 КГц
Частота кадров : 31,250 кадров/сек (1536 spf)
Битовая глубина : 16 бит
Метод сжатия : С потерями
Размер потока : 152 Мбайт (1%)
Заголовок : Профессиональный двухголосый (ОРТ)
Язык : Russian
Default : Нет
Forced : Нет

Аудио #7
Идентификатор : 8
Формат : AC-3
Формат/Информация : Audio Coding 3
Расширение режима : CM (complete main)
Параметр Endianness формата : Big
Идентификатор кодека : A_AC3
Продолжительность : 1 ч. 50 м.
Вид битрейта : Постоянный
Битрейт : 192 Кбит/сек
Каналы : 2 канала
Расположение каналов : Front: L R
Частота : 48,0 КГц
Частота кадров : 31,250 кадров/сек (1536 spf)
Битовая глубина : 16 бит
Метод сжатия : С потерями
Размер потока : 152 Мбайт (1%)
Заголовок : Профессиональный двухголосый (НТВ+)
Язык : Russian
Default : Нет
Forced : Нет

Аудио #8
Идентификатор : 9
Формат : AC-3
Формат/Информация : Audio Coding 3
Расширение режима : CM (complete main)
Параметр Endianness формата : Big
Идентификатор кодека : A_AC3
Продолжительность : 1 ч. 50 м.
Вид битрейта : Постоянный
Битрейт : 192 Кбит/сек
Каналы : 2 канала
Расположение каналов : Front: L R
Частота : 48,0 КГц
Частота кадров : 31,250 кадров/сек (1536 spf)
Битовая глубина : 16 бит
Метод сжатия : С потерями
Размер потока : 152 Мбайт (1%)
Заголовок : Авторский А.Гаврилов
Язык : Russian
Default : Нет
Forced : Нет

Аудио #9
Идентификатор : 10
Формат : AC-3
Формат/Информация : Audio Coding 3
Расширение режима : CM (complete main)
Параметр Endianness формата : Big
Идентификатор кодека : A_AC3
Продолжительность : 1 ч. 50 м.
Вид битрейта : Постоянный
Битрейт : 192 Кбит/сек
Каналы : 2 канала
Расположение каналов : Front: L R
Частота : 48,0 КГц
Частота кадров : 31,250 кадров/сек (1536 spf)
Битовая глубина : 16 бит
Метод сжатия : С потерями
Размер потока : 152 Мбайт (1%)
Заголовок : Авторский М.Иванов
Язык : Russian
Default : Нет
Forced : Нет

Аудио #10
Идентификатор : 11
Формат : AC-3
Формат/Информация : Audio Coding 3
Расширение режима : CM (complete main)
Параметр Endianness формата : Big
Идентификатор кодека : A_AC3
Продолжительность : 1 ч. 50 м.
Вид битрейта : Постоянный
Битрейт : 192 Кбит/сек
Каналы : 2 канала
Расположение каналов : Front: L R
Частота : 48,0 КГц
Частота кадров : 31,250 кадров/сек (1536 spf)
Битовая глубина : 16 бит
Метод сжатия : С потерями
Размер потока : 152 Мбайт (1%)
Заголовок : Авторский А.Михалёв
Язык : Russian
Default : Нет
Forced : Нет

Аудио #11
Идентификатор : 12
Формат : AC-3
Формат/Информация : Audio Coding 3
Расширение режима : CM (complete main)
Параметр Endianness формата : Big
Идентификатор кодека : A_AC3
Продолжительность : 1 ч. 50 м.
Вид битрейта : Постоянный
Битрейт : 224 Кбит/сек
Каналы : 2 канала
Расположение каналов : Front: L R
Частота : 48,0 КГц
Частота кадров : 31,250 кадров/сек (1536 spf)
Битовая глубина : 16 бит
Метод сжатия : С потерями
Размер потока : 177 Мбайт (1%)
Заголовок : Авторский М.Яроцкий
Язык : Russian
Default : Нет
Forced : Нет

Аудио #12
Идентификатор : 13
Формат : AC-3
Формат/Информация : Audio Coding 3
Расширение режима : CM (complete main)
Параметр Endianness формата : Big
Идентификатор кодека : A_AC3
Продолжительность : 1 ч. 50 м.
Вид битрейта : Постоянный
Битрейт : 192 Кбит/сек
Каналы : 2 канала
Расположение каналов : Front: L R
Частота : 48,0 КГц
Частота кадров : 31,250 кадров/сек (1536 spf)
Битовая глубина : 16 бит
Метод сжатия : С потерями
Размер потока : 152 Мбайт (1%)
Заголовок : Авторский одноголосый (неизвестный)
Язык : Russian
Default : Нет
Forced : Нет

Аудио #13
Идентификатор : 14
Формат : AC-3
Формат/Информация : Audio Coding 3
Расширение режима : CM (complete main)
Параметр Endianness формата : Big
Идентификатор кодека : A_AC3
Продолжительность : 1 ч. 50 м.
Вид битрейта : Постоянный
Битрейт : 192 Кбит/сек
Каналы : 2 канала
Расположение каналов : Front: L R
Частота : 48,0 КГц
Частота кадров : 31,250 кадров/сек (1536 spf)
Битовая глубина : 16 бит
Метод сжатия : С потерями
Размер потока : 152 Мбайт (1%)
Заголовок : оригинальная звуковая дорожка
Язык : English
Default : Нет
Forced : Нет

Текст #1
Идентификатор : 15
Формат : UTF-8
Идентификатор кодека : S_TEXT/UTF8
Идентификатор кодека/Информация : UTF-8 Plain Text
Язык : Russian
Default : Нет
Forced : Нет

Текст #2
Идентификатор : 16
Формат : UTF-8
Идентификатор кодека : S_TEXT/UTF8
Идентификатор кодека/Информация : UTF-8 Plain Text
Язык : English
Default : Нет
Forced : Нет

Меню
00:00:00.000 : :Chapter 01
00:08:41.645 : :Chapter 02
00:18:18.763 : :Chapter 03
00:27:45.871 : :Chapter 04
00:34:08.545 : :Chapter 05
00:51:28.168 : :Chapter 06
01:02:10.934 : :Chapter 07
01:10:31.100 : :Chapter 08
01:19:35.729 : :Chapter 09
01:29:03.503 : :Chapter 10
01:40:15.259 : :Chapter 11
01:46:50.404 : :Chapter 12
01:50:34.586 : :Chapter 13
x264 [info]: profile High, level 4.1
x264 [info]: frame I:1063 Avg QP:20.69 size:121243 PSNR Mean Y:42.48 U:48.57 V:49.21 Avg:43.72 Global:43.31
x264 [info]: frame P:29067 Avg QP:21.63 size: 90110 PSNR Mean Y:41.30 U:48.89 V:49.07 Avg:42.63 Global:42.07
x264 [info]: frame B:128941 Avg QP:23.59 size: 62327 PSNR Mean Y:39.36 U:47.84 V:48.51 Avg:40.80 Global:40.32


_________________
Проголосуй за трекер Открытый торрент трекер - RUS-MEDIA.ORG

Проголосуй Открытый торрент трекер - RUS-MEDIA.ORG


Вернуться к началу
 Профиль Отправить личное сообщение  
 
   Похожие торренты   Автор   Торрент   Размер 
В этой теме нет новых непрочитанных сообщений. Птичка на проводе / Bird on a Wire [боевик, триллер, комедия, приключения, 1990] BDRip 720p, Mvo

salma3

102 | 22

7.24 ГБ

В этой теме нет новых непрочитанных сообщений. Птичка на проводе / Bird on a Wire [боевик, триллер, комедия, 1990] BDRip 1080p, Mvo

salma3

28 | 73

15.79 ГБ

В этой теме нет новых непрочитанных сообщений. Птичка на проводе / Bird on a Wire [Боевик, Комедия, Приключения, Триллер, 1990] WEB-DLRip 720p, Mvo+Dvo+Avo+Sub

salma3

7 | 42

7.76 ГБ

В этой теме нет новых непрочитанных сообщений. Птичка на проводе / Bird on a Wire [боевик, триллер, комедия, приключения, 1990] WEB-DLRip-AVC, MvO+Avo+Sub

salma3

106 | 17

1.45 ГБ

В этой теме нет новых непрочитанных сообщений. Птичка на проводе / Bird on a Wire [боевик, триллер, комедия, 1990] WEB-DL 1080p, Mvo+Dvo+Avo+Sub [Open Matte]

salma3

23 | 14

13.49 ГБ

В этой теме нет новых непрочитанных сообщений. Птичка на проводе / Bird on a Wire [Боевик, Комедия, Приключения, Триллер, 1990] WEB-DLRip, Avo [Гаврилов]

salma3

33 | 9

1.46 ГБ

В этой теме нет новых непрочитанных сообщений. Точка невозврата / High Wire Act / Beirut [Триллер, драма, 2018] BDRip 720p, Dub [iTunes]

salma3

0 | 0

4.96 ГБ


Начать новую тему Ответить на тему  [ 1 сообщение ] 




Для Мосгорсуда, Роскомнадзора и рекламодателей:: mosgorsud-torrent[собачка]yandex.ru
cron