Торрент файл
скачать торрент магнет ссылка Добавлен: 05 сен 2017, 11:12
Размер: 39.63 ГБ
Сидеров: 19
Личеров: 15
Статус: (salma3)
Автор

СообщениеДобавлено: 05 сен 2017, 11:12 

В сети
Супермодератор
Аватара пользователя
Дата регистрации:
15 фев 2012, 16:44
Возраст: 28
Спасибо: 6480 / 2129
Сообщения: 41123
Год выхода: 2001
Жанр: Боевик, драма, мелодрама, военный
Режиссер: Майкл Бэй

В ролях: Бен Аффлек, Джош Хартнетт, Кейт Бекинсейл, Уильям Ли Скотт, Грег Зола, Юэн Бремнер, Алек Болдуин, Джейми Кинг, Кэтрин Келлнер, Дженнифер Гарнер, Джон Войт, Кьюба Гудинг мл., Майкл Шеннон,

О фильме:
Два верных друга, Рэйф и Дэнни, с детских лет жили лишь одним – небом; они хотели, во чтобы-то ни стало, стать классными лётчиками, и, в конце концов, они ими стали. Друзья поступили на службу военно-воздушных сил США – "страны свободы, родины отважных". Пришла пора романтики – оба влюбились, и любовь их обратилась к одной девушке – скромной красавице-медсестре Эвелин. Видя предпочтение девушки Рэйфу, Денни, как истинный друг, ушёл в сторону. Тем временем шёл 41-й год, за океаном бушевала Вторая мировая война. Эта война устроила проверку чувств дружбы и любви через гибель и внезапное возвращение Рэйфа в тот момент, когда в сердцах друзей и любимой он был уже усопшим. И вот, по прошествии эмоциональных бурь, ранним утром 7 декабря, в воскресенье, тихой и неумолимой поступью, словно холодный аспид, в безмятежный Гавайский порт прокралась она – "костлявая с косой"… Этот фильм, буквально кожей заставляет зрителя прочувствовать ужас обрушения внезапной войны и показывает, насколько должна быть крепка дружба и бессмертна любовь.



Страна: США
Продолжительность: 03:03:05
Перевод: Дублированный, профессиональный многоголосый, авторский

Файл
Кодек: MPEG-2
Качество: BDRemux 1080p
Видео: 20766 Кбит/с, 1920×1080, 23.976 кадр/с
Аудио 1: Русский Dolby Digital Audio / 640 kbps / 5.1 / 48 kHz / DN -4dB - Дубляж
Аудио 2: Русский DTS-HD Master Audio / 2382 kbps / 5.1 / 48 kHz / 16-bit (DTS Core: 5.1 / 48 kHz / 1509 kbps / 16-bit) - Профессиональный многоголосый (Карусель)
Аудио 3: Русский DTS Audio / 768 kbps / 5.1 / 48 kHz / 24-bit - Профессиональный многоголосый
Аудио 4: Русский Dolby Digital Audiо / 448 kbps / 5.1 / 48 kHz / - Профессиональный многоголосый
Аудио 5: Русский DTS-HD Master Audio / 2349 kbps / 5.1 / 48 kHz / 16-bit (DTS Core: 5.1 / 48 kHz / 1509 kbps / 16-bit) - Авторский (Живов)
Аудио 6: Русский Dolby Digital Audio / 640 kbps / 5.1 / 48 kHz - Авторский (Гаврилов)
Аудио 7: Русский Dolby Digital Audio / 448 kbps / 5.1 / 48 kHz / - Авторский (Живов)
Аудио 8: Украинский Dolby Digital Audio / 192 kbps / 2.0 / 48 kHz / DN -4dB - Профессиональный многоголосый
Аудио 9: Английский DTS-HD Master Audio / 2357 kbps / 5.1 / 48 kHz / 16-bit (DTS Core: 5.1 / 48 kHz / 1509 kbps / 16-bit) - Оригинал
Субтитры: Русские, английские
Главы: есть.

Оскар, 2002 год
Победитель (1):
Лучший монтаж звука
Номинации (3):
Лучший звук
Лучшие визуальные эффекты
Лучшая песня — «There You'll Be»
Золотой глобус, 2002 год
Номинации (2):
Лучшая песня — «There You'Ll Be»
Лучший саундтрек
Премия канала «MTV», 2002 год
Победитель (1):
Лучшая экшн-сцена
Номинации (2):
Лучшая женская роль (Кейт Бекинсейл)
Лучшая мужская роль (Джош Хартнетт)
Золотая малина, 2002 год
Номинации (6):
Худший фильм
Худшая мужская роль (Бен Аффлек)
Худший режиссер (Майкл Бэй)
Худший сценарий
Худший римейк/сиквел
Худшая экранная пара — «Бен Аффлек и Кейт Бекинсейл или Бен Аффлек и Джош Хартнет»

Общее
Уникальный идентификатор : 220422273771783966637868142119570665750 (0xA5D3C926B21B6D6AB01A159E76247116)
Полное имя : D:\РЕМУКС!!!!!\РАЗ\Перл-Харбор.BDRemux..mkv
Формат : Matroska
Версия формата : Version 4 / Version 2
Размер файла : 39,6 Гбайт
Продолжительность : 3 ч. 3 м.
Режим общего битрейта : Переменный
Общий поток : 31,0 Мбит/сек
Название фильма : Перл-Харбор.BDRemux.thx:SPOMOPS.
Дата кодирования : UTC 2016-01-27 19:15:28
Программа кодирования : mkvmerge v6.1.0 ('Old Devil') built on Mar 4 2013 09:10:42
Библиотека кодирования : libebml v1.3.0 + libmatroska v1.4.0

Видео
Идентификатор : 1
Формат : MPEG Video
Версия формата : Version 2
Профиль формата : Main@High
Параметр BVOP формата : Нет
Параметр матрицы формата : Выборочная
Идентификатор кодека : V_MPEG2
Идентификатор кодека/Информация : MPEG 1 or 2 Video
Продолжительность : 3 ч. 3 м.
Вид битрейта : Переменный
Максимальный битрейт : 38,0 Мбит/сек
Ширина : 1920 пикселей
Высота : 1080 пикселей
Соотношение сторон : 16:9
Режим частоты кадров : Постоянный
Частота кадров : 23,976 кадра/сек
Цветовое пространство : YUV
Субдискретизация насыщенности : 4:2:0
Битовая глубина : 8 бит
Тип развёртки : Прогрессивная
Метод сжатия : С потерями
Временной код первого кадра : 00:59:59:00
Оригинал временного кода : Group of pictures header
Default : Да
Forced : Нет

Аудио #1
Идентификатор : 2
Формат : AC-3
Формат/Информация : Audio Coding 3
Расширение режима : CM (complete main)
Параметр Endianness формата : Big
Идентификатор кодека : A_AC3
Продолжительность : 3 ч. 3 м.
Вид битрейта : Постоянный
Битрейт : 640 Кбит/сек
Каналы : 6 каналов
Расположение каналов : Front: L C R, Side: L R, LFE
Частота : 48,0 КГц
Битовая глубина : 16 бит
Метод сжатия : С потерями
Размер потока : 839 Мбайт (2%)
Заголовок : Русский АСЗ 640 kbps - Дубляж
Язык : Russian
Default : Да
Forced : Нет

Аудио #2
Идентификатор : 3
Формат : DTS
Формат/Информация : Digital Theater Systems
Профиль формата : MA / Core
Режим : 16
Параметр Endianness формата : Big
Идентификатор кодека : A_DTS
Продолжительность : 3 ч. 3 м.
Вид битрейта : Переменный
Битрейт : Неизвестно / 1509 Кбит/сек
Каналы : 6 каналов
Расположение каналов : Front: L C R, Side: L R, LFE
Частота : 48,0 КГц
Битовая глубина : 16 бит
Метод сжатия : Без потерь / Lossy
Заголовок : Русский DTS-HD M A 2382 kbps - MVO - Карусель
Язык : Russian
Default : Нет
Forced : Нет

Аудио #3
Идентификатор : 4
Формат : DTS
Формат/Информация : Digital Theater Systems
Режим : 16
Параметр Endianness формата : Big
Идентификатор кодека : A_DTS
Продолжительность : 3 ч. 3 м.
Вид битрейта : Постоянный
Битрейт : 755 Кбит/сек
Каналы : 6 каналов
Расположение каналов : Front: L C R, Side: L R, LFE
Частота : 48,0 КГц
Битовая глубина : 24 бит
Метод сжатия : С потерями
Размер потока : 989 Мбайт (2%)
Заголовок : Русский DTS 755 kbps - MVO
Язык : Russian
Default : Нет
Forced : Нет

Аудио #4
Идентификатор : 5
Формат : AC-3
Формат/Информация : Audio Coding 3
Расширение режима : CM (complete main)
Параметр Endianness формата : Big
Идентификатор кодека : A_AC3
Продолжительность : 3 ч. 3 м.
Вид битрейта : Постоянный
Битрейт : 448 Кбит/сек
Каналы : 6 каналов
Расположение каналов : Front: L C R, Side: L R, LFE
Частота : 48,0 КГц
Битовая глубина : 16 бит
Метод сжатия : С потерями
Размер потока : 587 Мбайт (1%)
Заголовок : Русский АСЗ 448 kbps - MVO
Язык : Russian
Default : Нет
Forced : Нет

Аудио #5
Идентификатор : 6
Формат : DTS
Формат/Информация : Digital Theater Systems
Профиль формата : MA / Core
Режим : 16
Параметр Endianness формата : Big
Идентификатор кодека : A_DTS
Продолжительность : 3 ч. 3 м.
Вид битрейта : Переменный
Битрейт : Неизвестно / 1509 Кбит/сек
Каналы : 6 каналов
Расположение каналов : Front: L C R, Side: L R, LFE
Частота : 48,0 КГц
Битовая глубина : 16 бит
Метод сжатия : Без потерь / Lossy
Заголовок : Русский DTS-H M 2349 kbps - Живов
Язык : Russian
Default : Нет
Forced : Нет

Аудио #6
Идентификатор : 7
Формат : AC-3
Формат/Информация : Audio Coding 3
Расширение режима : CM (complete main)
Параметр Endianness формата : Big
Идентификатор кодека : A_AC3
Продолжительность : 3 ч. 3 м.
Вид битрейта : Постоянный
Битрейт : 640 Кбит/сек
Каналы : 6 каналов
Расположение каналов : Front: L C R, Side: L R, LFE
Частота : 48,0 КГц
Битовая глубина : 16 бит
Метод сжатия : С потерями
Размер потока : 839 Мбайт (2%)
Заголовок : Русский АСЗ 640 kbps - Гаврилов
Язык : Russian
Default : Нет
Forced : Нет

Аудио #7
Идентификатор : 8
Формат : AC-3
Формат/Информация : Audio Coding 3
Расширение режима : CM (complete main)
Параметр Endianness формата : Big
Идентификатор кодека : A_AC3
Продолжительность : 3 ч. 3 м.
Вид битрейта : Постоянный
Битрейт : 448 Кбит/сек
Каналы : 6 каналов
Расположение каналов : Front: L C R, Side: L R, LFE
Частота : 48,0 КГц
Битовая глубина : 16 бит
Метод сжатия : С потерями
Размер потока : 587 Мбайт (1%)
Заголовок : Русский АСЗ 448 kbps - Живов
Язык : Russian
Default : Нет
Forced : Нет

Аудио #8
Идентификатор : 9
Формат : AC-3
Формат/Информация : Audio Coding 3
Расширение режима : CM (complete main)
Параметр Endianness формата : Big
Идентификатор кодека : A_AC3
Продолжительность : 3 ч. 3 м.
Вид битрейта : Постоянный
Битрейт : 192 Кбит/сек
Каналы : 2 канала
Расположение каналов : Front: L R
Частота : 48,0 КГц
Битовая глубина : 16 бит
Метод сжатия : С потерями
Размер потока : 252 Мбайт (1%)
Заголовок : Украинский АСЗ 192 kbps - MVO
Язык : Ukrainian
Default : Нет
Forced : Нет

Аудио #9
Идентификатор : 10
Формат : DTS
Формат/Информация : Digital Theater Systems
Профиль формата : MA / Core
Режим : 16
Параметр Endianness формата : Big
Идентификатор кодека : A_DTS
Продолжительность : 3 ч. 3 м.
Вид битрейта : Переменный
Битрейт : Неизвестно / 1509 Кбит/сек
Каналы : 6 каналов
Расположение каналов : Front: L C R, Side: L R, LFE
Частота : 48,0 КГц
Битовая глубина : 16 бит
Метод сжатия : Без потерь / Lossy
Заголовок : Английский DTS-HD M A 2357 kbps - Оригинал
Язык : English
Default : Нет
Forced : Нет

Текст #1
Идентификатор : 11
Формат : UTF-8
Идентификатор кодека : S_TEXT/UTF8
Идентификатор кодека/Информация : UTF-8 Plain Text
Заголовок : Русские - форс
Язык : Russian
Default : Да
Forced : Нет

Текст #2
Идентификатор : 12
Формат : UTF-8
Идентификатор кодека : S_TEXT/UTF8
Идентификатор кодека/Информация : UTF-8 Plain Text
Заголовок : Русские
Язык : Russian
Default : Нет
Forced : Нет

Текст #3
Идентификатор : 13
Формат : UTF-8
Идентификатор кодека : S_TEXT/UTF8
Идентификатор кодека/Информация : UTF-8 Plain Text
Заголовок : Английские
Язык : English
Default : Нет
Forced : Нет

Текст #4
Идентификатор : 14
Формат : UTF-8
Идентификатор кодека : S_TEXT/UTF8
Идентификатор кодека/Информация : UTF-8 Plain Text
Заголовок : Украинские
Язык : Ukrainian
Default : Нет
Forced : Нет

Меню
00:00:00.000 : :Chapter 01
00:04:42.031 : :Chapter 02
00:04:59.090 : :Chapter 03
00:08:30.760 : :Chapter 04
00:10:50.900 : :Chapter 05
00:16:49.675 : :Chapter 06
00:20:08.123 : :Chapter 07
00:23:23.151 : :Chapter 08
00:31:04.612 : :Chapter 09
00:34:34.405 : :Chapter 10
00:40:33.889 : :Chapter 11
00:43:43.287 : :Chapter 12
00:47:21.797 : :Chapter 13
00:52:07.874 : :Chapter 14
00:58:47.273 : :Chapter 15
01:01:53.418 : :Chapter 16
01:06:06.253 : :Chapter 17
01:12:15.372 : :Chapter 18
01:16:36.216 : :Chapter 19
01:20:39.626 : :Chapter 20
01:25:21.825 : :Chapter 21
01:27:48.054 : :Chapter 22
01:31:54.926 : :Chapter 23
01:35:53.247 : :Chapter 24
01:40:55.424 : :Chapter 25
01:44:36.561 : :Chapter 26
01:46:40.977 : :Chapter 27
01:52:22.235 : :Chapter 28
01:56:50.211 : :Chapter 29
01:59:33.249 : :Chapter 30
02:04:33.340 : :Chapter 31
02:08:47.344 : :Chapter 32
02:12:28.065 : :Chapter 33
02:18:44.190 : :Chapter 34
02:23:01.948 : :Chapter 35
02:26:41.042 : :Chapter 36
02:30:34.233 : :Chapter 37
02:35:56.930 : :Chapter 38
02:40:09.474 : :Chapter 39
02:43:28.340 : :Chapter 40
02:45:21.077 : :Chapter 41
02:48:59.170 : :Chapter 42
02:51:06.756 : :Chapter 43
02:52:34.761 : :Chapter 44
03:03:05.015 : :Chapter 45



_________________
Проголосуй за трекер Открытый торрент трекер - RUS-MEDIA.ORG

Проголосуй Открытый торрент трекер - RUS-MEDIA.ORG



реклама партнёра


Вернуться к началу
 Профиль Отправить личное сообщение  
 
   Похожие торренты   Автор   Торрент   Размер 
В этой теме нет новых непрочитанных сообщений. Союзники / Allied (Боевик, триллер, драма, мелодрама, военный, 2016) BDRemux 1080p от ExKinoRay | L

marya111

165 | 90

28.5 ГБ

В этой теме нет новых непрочитанных сообщений. Мулен Руж! / Moulin Rouge! [Драма, мелодрама, мюзикл, экранизация, 2001] BDRemux 1080p, Dub

salma3

6 | 2

53.49 ГБ

В этой теме нет новых непрочитанных сообщений. МакБэйн / McBain [боевик, драма, военный, 1991] BDRemux 1080p, Avo

salma3

0 | 2

21.98 ГБ

В этой теме нет новых непрочитанных сообщений. Солдат Джейн / G.I. Jane [Драма, боевик, военный, 1997] BDRemux 1080p, Dub

salma3

7 | 14

21.14 ГБ

В этой теме нет новых непрочитанных сообщений. Возмещение ущерба / Collateral Damage [Боевик, триллер, драма, 2001] BDRemux 1080p, Dub

salma3

37 | 28

23.73 ГБ

В этой теме нет новых непрочитанных сообщений. Последний самурай / The Last Samurai [Боевик, драма, военный, история, 2003] BDRemux 1080p, Dub

salma3

10 | 15

25.35 ГБ

В этой теме нет новых непрочитанных сообщений. Дракула / Dracula Untold (Гари Шор) [ужасы, фэнтези, боевик, драма, военный, 2014] BDRemux 1080p, Dub+Sub [Лицензия]

Dracon

43 | 7

22.26 ГБ


Начать новую тему Ответить на тему  [ 1 сообщение ] 




Для Мосгорсуда, Роскомнадзора и рекламодателей:: mosgorsud-torrent[собачка]yandex.ru