Торрент файл
скачать торрент магнет ссылка Добавлен: 03 сен 2017, 22:42
Размер: 12.33 ГБ
Сидеров: 24
Личеров: 30
Статус: (salma3)
Автор

СообщениеДобавлено: 03 сен 2017, 22:42 

Не в сети
Супермодератор
Аватара пользователя
Дата регистрации:
15 фев 2012, 16:44
Возраст: 28
Спасибо: 6579 / 2144
Сообщения: 44050
Год выхода: 1982
Жанр: комедия, фантастика
Режиссер: Линдсей Андерсон / Lindsay Anderson

В ролях: Леонард Росситер, Грэм Крауден, Малколм МакДауэлл, Джоан Плоурайт, Джилл Беннетт, Марша Хант, Фрэнк Граймс, Роланд Калвер, Фултон МакКэй, Вивьен Пиклз, Марк Хэмилл, Лиз Смит, Алан Бэйтс, Артур Лоу, Робби Колтрэйн

О фильме:
Комедия абсурда, действие которой происходит в госпитале. Группы непонятно против чего протестующих людей, нетерпеливые пациенты, сумасшедший доктор — вот далеко еще не все участники этого веселого зрелища в жанре черной комедии. Комичность всей этой неразберихи усиливается еще и визитом Королевы Матери.



Страна: Великобритания
Продолжительность: 01:57:39
Перевод: Перевод: Профессиональный (двухголосый закадровый) Видеофильм
Перевод 2: Авторский (одноголосый закадровый) Сергей Кузнецов

Файл
Кодек: h.264
Качество: WEB-DL 1080p
Видео: 1920x1040, 1.85:1, 14600 kbps, 23.976 fps
Звук:
Аудио: Русский, AC3, 2 ch, 48 KHz, 192 kbps
Аудио 2: Русский, AC3, 2 ch, 48 KHz, 192 kbps
Аудио 3: Англиский, AC3, 2 ch, 48 KHz, 224 kbps
Субтитры: английские (SRT)

Семпл

General
Unique ID : 200582192003973684912846320649479667775 (0x96E6B998E333F65EB5F3F9A85B10403F)
Complete name : D:DownloadsBritannia.Hospital.1982.WEB-DL.1080p.mkv
Format : Matroska
Format version : Version 4 / Version 2
File size : 12.3 GiB
Duration : 1 h 56 min
Overall bit rate mode : Variable
Overall bit rate : 15.2 Mb/s
Encoded date : UTC 2017-09-03 17:34:16
Writing application : mkvmerge v15.0.0 ('Duel with the Devil') 64-bit
Writing library : libebml v1.3.5 + libmatroska v1.4.5

Video
ID : 1
Format : AVC
Format/Info : Advanced Video Codec
Format profile : High@L4
Format settings, CABAC : Yes
Format settings, ReFrames : 4 frames
Codec ID : V_MPEG4/ISO/AVC
Duration : 1 h 56 min
Bit rate mode : Variable
Bit rate : 14.6 Mb/s
Maximum bit rate : 15.0 Mb/s
Width : 1 920 pixels
Height : 1 040 pixels
Display aspect ratio : 1.85:1
Frame rate mode : Constant
Frame rate : 23.976 (24000/1001) FPS
Color space : YUV
Chroma subsampling : 4:2:0
Bit depth : 8 bits
Scan type : Progressive
Bits/(Pixel*Frame) : 0.304
Stream size : 11.8 GiB (96%)
Writing library : x264 core 148 r2623 d5b2374
Encoding settings : cabac=1 / ref=4 / deblock=1:-1:-1 / analyse=0x3:0x133 / me=umh / subme=9 / psy=1 / psy_rd=1.00:0.15 / mixed_ref=1 / me_range=24 / chroma_me=1 / trellis=2 / 8x8dct=1 / cqm=0 / deadzone=21,11 / fast_pskip=1 / chroma_qp_offset=-3 / threads=32 / lookahead_threads=5 / sliced_threads=0 / nr=150 / decimate=1 / interlaced=0 / bluray_compat=0 / constrained_intra=0 / bframes=8 / b_pyramid=2 / b_adapt=2 / b_bias=0 / direct=3 / weightb=1 / open_gop=0 / weightp=2 / keyint=120 / keyint_min=61 / scenecut=0 / intra_refresh=0 / rc_lookahead=120 / rc=crf / mbtree=1 / crf=18.0 / qcomp=0.60 / qpmin=0 / qpmax=69 / qpstep=4 / vbv_maxrate=15000 / vbv_bufsize=31250 / crf_max=0.0 / nal_hrd=vbr / filler=0 / ip_ratio=1.40 / aq=3:1.00
Default : Yes
Forced : No
Color range : Limited
Color primaries : BT.709
Transfer characteristics : BT.709
Matrix coefficients : BT.709

Audio #1
ID : 2
Format : AC-3
Format/Info : Audio Coding 3
Format settings, Endianness : Big
Codec ID : A_AC3
Duration : 1 h 56 min
Bit rate mode : Constant
Bit rate : 192 kb/s
Channel(s) : 2 channels
Channel positions : Front: L R
Sampling rate : 48.0 kHz
Frame rate : 31.250 FPS (1536 spf)
Bit depth : 16 bits
Compression mode : Lossy
Stream size : 160 MiB (1%)
Title : Профессиональный двухголосый | Видеофильм
Language : Russian
Service kind : Complete Main
Default : Yes
Forced : No

Audio #2
ID : 3
Format : AC-3
Format/Info : Audio Coding 3
Format settings, Endianness : Big
Codec ID : A_AC3
Duration : 1 h 56 min
Bit rate mode : Constant
Bit rate : 192 kb/s
Channel(s) : 2 channels
Channel positions : Front: L R
Sampling rate : 48.0 kHz
Frame rate : 31.250 FPS (1536 spf)
Bit depth : 16 bits
Compression mode : Lossy
Delay relative to video : 5 s 706 ms
Stream size : 160 MiB (1%)
Title : Авторский (одноголосый закадровый) | Сергей Кузнецов
Language : Russian
Service kind : Complete Main
Default : No
Forced : No

Audio #3
ID : 4
Format : E-AC-3
Format/Info : Enhanced Audio Coding 3
Format settings, Endianness : Big
Codec ID : A_EAC3
Duration : 1 h 56 min
Bit rate mode : Constant
Bit rate : 224 kb/s
Channel(s) : 2 channels
Channel positions : Front: L R
Sampling rate : 48.0 kHz
Frame rate : 187.500 FPS (256 spf)
Compression mode : Lossy
Stream size : 187 MiB (1%)
Language : English
Service kind : Complete Main
Default : No
Forced : No

Text
ID : 5
Format : UTF-8
Codec ID : S_TEXT/UTF8
Codec ID/Info : UTF-8 Plain Text
Duration : 1 h 55 min
Bit rate : 62 b/s
Count of elements : 1936
Stream size : 52.6 KiB (0%)
Language : English
Default : No
Forced : No


_________________
Проголосуй за трекер Открытый торрент трекер - RUS-MEDIA.ORG

Проголосуй Открытый торрент трекер - RUS-MEDIA.ORG



реклама партнёра


Вернуться к началу
 Профиль Отправить личное сообщение  
 
   Похожие торренты   Автор   Торрент   Размер 
В этой теме нет новых непрочитанных сообщений. Госпиталь «Британия» / Britannia Hospital [фантастика, комедия, 1982] WEBRip, Mvo

salma3

99 | 37

1.45 ГБ

В этой теме нет новых непрочитанных сообщений. Нечто / The Thing [ужасы, фантастика, триллер, 1982] BDRip 1080p, Mvo+Sub [лицензия]

salma3

65 | 6

4.37 ГБ

В этой теме нет новых непрочитанных сообщений. Инопланетянин / E.T. the Extra-Terrestrial [фантастика, фэнтези, драма, 1982] BDRip 1080p, Dub

salma3

8 | 3

18.63 ГБ

В этой теме нет новых непрочитанных сообщений. Крысы / Смертельные глаза / Deadly Eyes [ужасы, фантастика, 1982] BDRemux 1080p, 4Avo+Sub

salma3

5 | 3

22.21 ГБ

В этой теме нет новых непрочитанных сообщений. Охота на индюшек / Turkey Shoot [ужасы, фантастика, триллер, драма, 1982] BDRip 1080p, Dvo+Avo+Sub

salma3

23 | 2

8.45 ГБ

В этой теме нет новых непрочитанных сообщений. Больница / The Hospital [драма, комедия, детектив, 1971] WEB-DLRip, Mvo

salma3

40 | 9

1.45 ГБ

В этой теме нет новых непрочитанных сообщений. Бездельник / Slacker [комедия, драма, 1982] BDRemux 1080p, Avo

salma3

0 | 0

18.41 ГБ


Начать новую тему Ответить на тему  [ 1 сообщение ] 




Для Мосгорсуда, Роскомнадзора и рекламодателей:: mosgorsud-torrent[собачка]yandex.ru