Торрент файл
скачать торрент магнет ссылка Добавлен: 02 сен 2017, 21:25
Размер: 10.46 ГБ
Сидеров: 36
Личеров: 7
Статус: (salma3)
Автор

СообщениеДобавлено: 02 сен 2017, 21:25 

Не в сети
Супермодератор
Аватара пользователя
Дата регистрации:
15 фев 2012, 16:44
Возраст: 28
Спасибо: 6659 / 2146
Сообщения: 46020
Год выхода: 2002
Жанр: фантастика, боевик, комедия
Режиссер: Кевин Донован

В ролях: Джеки Чан, Дженнифер Лав Хьюитт, Джейсон Айзекс, Деби Мейзар, Ричи Костер, Петер Стормаре, Миа Коттет, Романи Малко, Дэниэл Кэш, Джоди Расикот

О фильме:
Пока агент Кларк Девлин находится в коме, рядовому нью-йоркскому таксисту Джимми Тонгу приходится взять на себя секретную миссию по заказу правительства США. К Тонгу переходит компьютеризованный смокинг Девлина, который придает его носителю необычайные способности в плане драк, маскировки и обольщения. И Джимми начинает захватывающую жизнь секретного агента в компании с такой же дилетанткой, как и он сам…



Страна: США
Продолжительность: 01:38:45
Перевод: Профессиональный (дублированный) iTunes

Файл
Формат: Matroska
Качество: WEBRip 1080p
Видео: 1920x1080 at 23.976 fps, x264@L4, ~14330 kbps avg
Аудио#1: Russian: 48 kHz, AC3 Dolby Digital, 3/2 (L,C,R,l,r) + LFE ch, ~384 kbps |Дубляж, iTunes|
Аудио#2: English: 48 kHz, AC3 Dolby Digital, 3/2 (L,C,R,l,r) + LFE ch, ~448 kbps
Субтитры: Russian (Full), English (Full, SDH)

***Сохранены и подписаны оригинальные главы.
***Релиз - spartanec163.

Общее
Уникальный идентификатор : 170765260018442796238181236626498547468 (0x8078315993408EE4A103360189346F0C)
Полное имя : The.Tuxedo.2002.1080p.WEB-DL.Rus.Eng.mkv
Формат : Matroska
Версия формата : Version 4 / Version 2
Размер файла : 10,5 Гбайт
Продолжительность : 1 ч. 38 м.
Режим общего битрейта : Переменный
Общий поток : 15,2 Мбит/сек
Название фильма : Release by spartanec163
Дата кодирования : UTC 2016-11-26 09:44:55
Программа кодирования : mkvmerge v8.3.0 ('Over the Horizon') 64bit
Библиотека кодирования : libebml v1.3.1 + libmatroska v1.4.2

Видео
Идентификатор : 1
Формат : AVC
Формат/Информация : Advanced Video Codec
Профиль формата : High@L4.0
Параметр CABAC формата : Да
Параметр ReFrames формата : 4 кадра
Идентификатор кодека : V_MPEG4/ISO/AVC
Продолжительность : 1 ч. 38 м.
Вид битрейта : Переменный
Битрейт : 14,0 Мбит/сек
Максимальный битрейт : 15,0 Мбит/сек
Ширина : 1920 пикселей
Высота : 1080 пикселей
Соотношение сторон : 16:9
Режим частоты кадров : Постоянный
Частота кадров : 23,976 кадра/сек
Цветовое пространство : YUV
Субдискретизация насыщенности : 4:2:0
Битовая глубина : 8 бит
Тип развёртки : Прогрессивная
Бит/(Пиксели*Кадры) : 0.282
Размер потока : 9,68 Гбайт (93%)
Заголовок : WEB-DL 1080p (Amazon Video)
Библиотека кодирования : x264 core 148 r2623 d5b2374
Настройки программы : cabac=1 / ref=4 / deblock=1:-1:-1 / analyse=0x3:0x133 / me=umh / subme=9 / psy=1 / psy_rd=1.00:0.15 / mixed_ref=1 / me_range=24 / chroma_me=1 / trellis=2 / 8x8dct=1 / cqm=0 / deadzone=21,11 / fast_pskip=1 / chroma_qp_offset=-3 / threads=34 / lookahead_threads=5 / sliced_threads=0 / nr=150 / decimate=1 / interlaced=0 / bluray_compat=0 / constrained_intra=0 / bframes=8 / b_pyramid=2 / b_adapt=2 / b_bias=0 / direct=3 / weightb=1 / open_gop=0 / weightp=2 / keyint=120 / keyint_min=61 / scenecut=0 / intra_refresh=0 / rc_lookahead=120 / rc=crf / mbtree=1 / crf=18.0 / qcomp=0.60 / qpmin=0 / qpmax=69 / qpstep=4 / vbv_maxrate=15000 / vbv_bufsize=31250 / crf_max=0.0 / nal_hrd=vbr / filler=0 / ip_ratio=1.40 / aq=3:1.00
Язык : English
Default : Да
Forced : Нет
Основные цвета : BT.709
Характеристики трансфера : BT.709
Коэффициенты матрицы : BT.709

Аудио #1
Идентификатор : 2
Формат : AC-3
Формат/Информация : Audio Coding 3
Расширение режима : CM (complete main)
Параметр Endianness формата : Big
Идентификатор кодека : A_AC3
Продолжительность : 1 ч. 38 м.
Вид битрейта : Постоянный
Битрейт : 384 Кбит/сек
Каналы : 6 каналов
Расположение каналов : Front: L C R, Side: L R, LFE
Частота : 48,0 КГц
Битовая глубина : 16 бит
Метод сжатия : С потерями
Размер потока : 271 Мбайт (3%)
Заголовок : AC3 5.1 384Kbps (Дубляж, iTunes)
Язык : Russian
Default : Да
Forced : Нет

Аудио #2
Идентификатор : 3
Формат : AC-3
Формат/Информация : Audio Coding 3
Расширение режима : CM (complete main)
Параметр Endianness формата : Big
Идентификатор кодека : A_AC3
Продолжительность : 1 ч. 38 м.
Вид битрейта : Постоянный
Битрейт : 448 Кбит/сек
Каналы : 6 каналов
Расположение каналов : Front: L C R, Side: L R, LFE
Частота : 48,0 КГц
Битовая глубина : 16 бит
Метод сжатия : С потерями
Размер потока : 316 Мбайт (3%)
Заголовок : AC3 5.1 448Kbps (Оригинал)
Язык : English
Default : Нет
Forced : Нет

Текст #1
Идентификатор : 4
Формат : UTF-8
Идентификатор кодека : S_TEXT/UTF8
Идентификатор кодека/Информация : UTF-8 Plain Text
Заголовок : Full, iTunes
Язык : Russian
Default : Нет
Forced : Нет

Текст #2
Идентификатор : 5
Формат : UTF-8
Идентификатор кодека : S_TEXT/UTF8
Идентификатор кодека/Информация : UTF-8 Plain Text
Заголовок : Full, SDH, Amazon
Язык : English
Default : Нет
Forced : Нет

Меню
00:00:00.000 : en:Aqua La Vista (Main Titles)
00:03:36.800 : en:Art Gallery/Bike Messenger
00:08:12.158 : en:House Rules
00:10:51.650 : en:Meet Clark Devlin
00:13:17.087 : en:CSA Headquarters/Bug Store
00:19:14.778 : en:Skateboard Bomb
00:24:43.356 : en:Banning International
00:27:08.584 : en:Tuxedo Demo
00:31:23.005 : en:Nice Rack
00:35:34.506 : en:Rope Fighting
00:41:18.724 : en:A Little Over Amped
00:44:48.517 : en:Meet James Brown
00:49:04.439 : en:The Last Emperor of Soul
00:57:09.202 : en:Cheryl's Hospitality Suite
01:05:19.329 : en:Walk on Water
01:12:30.384 : en:"Clark Devlin" Is Back
01:17:33.353 : en:The Tuxedo vs. The Suit
01:22:37.490 : en:Awaiting the Queen
01:28:35.181 : en:Operation Art Gallery
01:33:12.249 : en:Outtakes (End Credits)
01:38:41.246 : en:Aqua La Vista (Main Titles)


_________________
Проголосуй за трекер Открытый торрент трекер - RUS-MEDIA.ORG

Проголосуй Открытый торрент трекер - RUS-MEDIA.ORG



реклама партнёра


Вернуться к началу
 Профиль Отправить личное сообщение  
 
   Похожие торренты   Автор   Торрент   Размер 
В этой теме нет новых непрочитанных сообщений. Смокинг / The Tuxedo [Комедия, боевик, 2002] WEB-DL 720p, Dub

salma3

26 | 8

3.54 ГБ

В этой теме нет новых непрочитанных сообщений. Пиксели / Pixels (Крис Коламбус) [фантастика, боевик, комедия, 2015] WEBRip 1080p, dub [Чистый звук]

Dracon

10914 | 280

7.94 ГБ

В этой теме нет новых непрочитанных сообщений. Человек-муравей / Ant-Man (Пейтон Рид) [фантастика, боевик, комедия, приключения, 2015] WEBRip 1080p, dub [Чистый звук]

Dracon

428 | 7

9.2 ГБ

В этой теме нет новых непрочитанных сообщений. Еще одна пятница / Friday After Next [драма, комедия, 2002] WEBRip 1080p, Mvo

salma3

68 | 8

3.68 ГБ

В этой теме нет новых непрочитанных сообщений. Штат одинокой звезды / Lone Star State of Mind [комедия, криминал, 2002] WEBRip 1080p, Mvo

salma3

6 | 24

6.61 ГБ

В этой теме нет новых непрочитанных сообщений. Окча / Okja [Фантастика, боевик, драма, 2017] WEBRip 1080p, Mvo

salma3

1021 | 240

6.58 ГБ

В этой теме нет новых непрочитанных сообщений. Тиана: 10000 лет спустя / Yi wan nian yi hou [фантастика, боевик, 2015] WEBRip 1080p, Avo

salma3

374 | 61

2.15 ГБ


Начать новую тему Ответить на тему  [ 1 сообщение ] 




Для Мосгорсуда, Роскомнадзора и рекламодателей:: mosgorsud-torrent[собачка]yandex.ru