Торрент файл
скачать торрент магнет ссылка Добавлен: 29 авг 2017, 09:15
Размер: 4.36 ГБ
Сидеров: 34
Личеров: 8
Статус: (salma3)
Автор

СообщениеДобавлено: 29 авг 2017, 09:15 

Не в сети
Супермодератор
Аватара пользователя
Дата регистрации:
15 фев 2012, 16:44
Возраст: 28
Спасибо: 6642 / 2146
Сообщения: 45622
Год выхода: 1987
Жанр: боевик, триллер, драма
Режиссер: Гари Шерман

В ролях: Рутгер Хауэр, Джин Симмонс, Роберт Гийом, Мел Харрис, Уильям Расс, Сьюзен МакДональд, Джерри Хардин, Хью Гиллам, Роберт Харпер, Эли Данкер

О фильме:
Бывший агент ЦРУ Ник Рэндолл зарабатывает на жизнь, охотясь за преступниками. Он суперпрофессионал и всегда работает один. В Лос-Анджелесе появляется «старый знакомый» Ника международный террорист Аль-Рахим, вынашивающий дьявольский план — превратить город в царство террора и смерти.

Он начинает действовать, взорвав кинотеатр и похоронив под его руинами 138 ни в чем не повинных людей. На следующее утро после взрыва ЦРУ предлагает Нику 50 тысяч долларов за поимку террориста. Ник соглашается, не зная, что агенты ЦРУ решили сделать из него наживку для Аль-Рахима.

И когда от рук террориста погибают два лучших друга Ника, он «забывает», что получит 50 тысяч долларов, лишь в том случае, если поймает Аль-Рахима живым. Он нужен Нику только мертвым….



Страна: США
Студия: New World Pictures, Balcor Film
Продолжительность: 01:46:30
Перевод: Профессиональный (многоголосый, закадровый) DVD9 + Авторский (одноголосый, закадровый) В.Завгородний + Авторский (одноголосый, закадровый) А.Михалев

Файл
Качество: BDRip 720p [Wanted.Dead.or.Alive.1987.BDRemux.1080p.NovaLan]
Формат: Matroska
Видео: 1280x688 at 23.976 fps, x264@L4.1, ~4580 kbps
Аудио#1: Russian: 48 kHz, AC3, 3/2 (L,C,R,l,r) + LFE ch, ~448 kbps avg |Многоголосый закадровый, DVD9|
Аудио#2: Russian: 48 kHz, AC3, 3/2 (L,C,R,l,r) + LFE ch, ~448 kbps avg |Авторский, В.Завгородний|
Аудио#3: Russian: 48 kHz, AC3, 2/0 (L,R) ch, ~192 kbps avg |Авторский, А.Михалев|
Аудио#4: English: 48 kHz, AC3, 2/0 (L,R) ch, ~192 kbps avg
Субтитры: English

**Сохранены оригинальные главы как на Blu-ray.
**В переводе В.Завгороднего присутствует ненормативная лексика!

General
Unique ID : 246192098553804490059842037175934808069 (0xB936DF9B931B5B5A95D30EE8A5907005)
Complete name : F:FILMSВзять живым или мертвым.(1987).BLU-RAY.720p.[-=DoMiNo=-].mkv
Format : Matroska
Format version : Version 4 / Version 2
File size : 4.36 GiB
Duration : 1 h 46 min
Overall bit rate : 5 862 kb/s
Movie name : Взять живым или мертвым
Deion : Бывший агент ЦРУ Ник Рэндолл зарабатывает на жизнь, охотясь за преступниками. Он суперпрофессионал и всегда работает один. В Лос-Анджелесе появляется «старый знакомый» Ника международный террорист Аль-Рахим, вынашивающий дьявольский план — превратить город в царство террора и смерти. / / Он начинает действовать, взорвав кинотеатр и похоронив под его руинами 138 ни в чем не повинных людей. На следующее утро после взрыва ЦРУ предлагает Нику 50 тысяч долларов за поимку террориста. Ник соглашается, не зная, что агенты ЦРУ решили сделать из него наживку для Аль-Рахима. / / И когда от рук террориста погибают два лучших друга Ника, он «забывает», что получит 50 тысяч долларов, лишь в том случае, если поймает Аль-Рахима живым. Он нужен Нику только мертвым….
Encoded date : UTC 2017-08-29 03:37:44
Writing application : mkvmerge v15.0.0 ('Duel with the Devil') 64-bit
Writing library : libebml v1.3.5 + libmatroska v1.4.5 / Lavf57.71.100
Attachments : poster.png
ACTORS : Рутгер Хауэр, Джин Симмонс, Роберт Гийом, Мел Харрис, Уильям Расс, Сьюзен МакДональд, Джерри Хардин, Хью Гиллам, Роберт Харпер, Эли Данкер, Джозеф Нассер, Сюзанн Вук, Джеральд Папасян, Ник Фальтас, Хаммам Шафи, Тайлер Тайхёрст, Тед Уайт, Нил Саммерс, Деннис Бёркли, Ди Ди Решер, Джесси Арагон, Ту Тхюй, Ту Бан Нгуйен, Гарри Скотт, Тииу Леек, Билл Смит, Р.Дж. Миллер, Чарльз Шапиро, Дэвид Бойл, Джеффри Джозефсон, Патрик Пуччинелли, Джэймс Эджком, Бадди Фармер, Гари Вернтц, Риф Хаттон, Ричард Пэртлоу, Рик Голдман, Джордж Шеннон, Ed Brodow, Патрик Горман, Хьюби Кернс мл., Дэнни Коста, Грег Уэйн Элам, Джон-Клей Скотт, Джерри Гэтлин, Сэм Лонгориа
COMPOSER : Джо Ренцетти
COUNTRY : США
DATE : 1987
DIRECTOR : Гари Шерман
ENCODING_INFO : BluRay > MKV 720p / H264 > X264 VBR-2P 4580kbps Произвольный / AC3 > COPY Безопасное
GENRE : боевик, триллер, драма, криминал
HD_VIDEO : 1
IMDB_RATING : 5.90
ITUNEXTC : mpaa|R|400|
Language : und
MEDIA_TYPE : 9
ORIGINAL_ACTORS : Rutger Hauer, Gene Simmons, Robert Guillaume, Mel Harris, William Russ, Susan MacDonald, Jerry Hardin, Hugh Gillam, Robert Harper, Eli Danker, Joseph Nasser, Suzanne Wouk, Gerald Papasian (в титрах: Gerald Papasyan), Nick Faltas, Hammam Shafie, Tyler Tyhurst, Ted White, Neil Summers (в титрах: Neil Sommers), Dennis Burkley, DeeDee Rescher, Jesse Aragon, Shere Thu Thuy (в титрах: Tu Thuy), Tu Ban Nguyen, Garry Scott, Tiiu Leek, Bill Smith, R.J. Miller, Charles Shapiro, David Boyle, Jeffrey Josephson, Patrick Puccinelli, James Edgcomb (в титрах: Jim Edgecomb), Buddy Farmer, Gary Werntz, Rif Hutton, Richard Partlow, Rick Goldman, George Shannon, Patrick Gorman, Hubie Kerns Jr., Danny Costa, Greg Wayne Elam (в титрах: Gregory W. Elam), John-Clay Scott, Jerry Gatlin, Sam Longoria
ORIGINAL_TITLE : Wanted: Dead or Alive
PRODUCER : Роберт С. Питерс, Бэрри Бернарди, Майкл Патрик Гудман, Артур М. Саркиссян
RATING : 6.751
WRITER : Майкл Патрик Гудман, Гари Шерман, Брайан Тэггерт

Video
ID : 1
Format : AVC
Format/Info : Advanced Video Codec
Format profile : High@L4.1
Format settings, CABAC : Yes
Format settings, RefFrames : 8 frames
Codec ID : V_MPEG4/ISO/AVC
Duration : 1 h 46 min
Bit rate : 4 580 kb/s
Width : 1 280 pixels
Height : 688 pixels
Display aspect ratio : 1.85:1
Frame rate mode : Constant
Frame rate : 23.976 (24000/1001) FPS
Color space : YUV
Chroma subsampling : 4:2:0
Bit depth : 8 bits
Scan type : Progressive
Bits/(Pixel*Frame) : 0.217
Stream size : 3.41 GiB (78%)
Title : BLU-RAY_720p_RIP_BY_-=DoMiNo=-
Writing library : x264 core 152 r2851M ba24899
Encoding settings : cabac=1 / ref=8 / deblock=1:-3:-3 / analyse=0x3:0x133 / me=umh / subme=11 / psy=1 / psy_rd=1.00:0.15 / mixed_ref=1 / me_range=64 / chroma_me=1 / trellis=2 / 8x8dct=1 / cqm=0 / deadzone=21,11 / fast_pskip=0 / chroma_qp_offset=-3 / threads=6 / lookahead_threads=1 / sliced_threads=0 / nr=0 / decimate=1 / interlaced=0 / bluray_compat=0 / constrained_intra=0 / bframes=9 / b_pyramid=2 / b_adapt=2 / b_bias=0 / direct=3 / weightb=1 / open_gop=0 / weightp=2 / keyint=230 / keyint_min=23 / scenecut=40 / intra_refresh=0 / rc_lookahead=60 / rc=2pass / mbtree=1 / bitrate=4580 / ratetol=1.0 / qcomp=0.60 / qpmin=0 / qpmax=69 / qpstep=4 / cplxblur=20.0 / qblur=0.5 / ip_ratio=1.40 / aq=1:1.00
Language : English
Default : Yes
Forced : No
Color range : Limited
Color primaries : BT.709
Transfer characteristics : BT.709
Matrix coefficients : BT.709

Audio #1
ID : 2
Format : AC-3
Format/Info : Audio Coding 3
Format settings, Endianness : Big
Codec ID : A_AC3
Duration : 1 h 46 min
Bit rate mode : Constant
Bit rate : 448 kb/s
Channel(s) : 6 channels
Channel positions : Front: L C R, Side: L R, LFE
Sampling rate : 48.0 kHz
Frame rate : 31.250 FPS (1536 SPF)
Bit depth : 16 bits
Compression mode : Lossy
Stream size : 341 MiB (8%)
Title : Профессиональный многоголосый
Language : Russian
Service kind : Complete Main
Default : Yes
Forced : No

Audio #2
ID : 3
Format : AC-3
Format/Info : Audio Coding 3
Format settings, Endianness : Big
Codec ID : A_AC3
Duration : 1 h 46 min
Bit rate mode : Constant
Bit rate : 448 kb/s
Channel(s) : 6 channels
Channel positions : Front: L C R, Side: L R, LFE
Sampling rate : 48.0 kHz
Frame rate : 31.250 FPS (1536 SPF)
Bit depth : 16 bits
Compression mode : Lossy
Stream size : 341 MiB (8%)
Title : Авторский одноголосый (Завгородний)
Language : Russian
Service kind : Complete Main
Default : No
Forced : No

Audio #3
ID : 4
Format : AC-3
Format/Info : Audio Coding 3
Format settings, Endianness : Big
Codec ID : A_AC3
Duration : 1 h 46 min
Bit rate mode : Constant
Bit rate : 192 kb/s
Channel(s) : 2 channels
Channel positions : Front: L R
Sampling rate : 48.0 kHz
Frame rate : 31.250 FPS (1536 SPF)
Bit depth : 16 bits
Compression mode : Lossy
Stream size : 146 MiB (3%)
Title : Авторский одноголосый (Алексей Михалев)
Language : Russian
Service kind : Complete Main
Default : No
Forced : No

Audio #4
ID : 5
Format : AC-3
Format/Info : Audio Coding 3
Format settings, Endianness : Big
Codec ID : A_AC3
Duration : 1 h 46 min
Bit rate mode : Constant
Bit rate : 192 kb/s
Channel(s) : 2 channels
Channel positions : Front: L R
Sampling rate : 48.0 kHz
Frame rate : 31.250 FPS (1536 SPF)
Bit depth : 16 bits
Compression mode : Lossy
Stream size : 146 MiB (3%)
Language : English
Service kind : Complete Main
Default : No
Forced : No

Text
ID : 6
Format : UTF-8
Codec ID : S_TEXT/UTF8
Codec ID/Info : UTF-8 Plain Text
Duration : 1 h 41 min
Bit rate : 35 b/s
Count of elements : 800
Stream size : 26.3 KiB (0%)
Title : ENG
Language : English
Default : No
Forced : No

Menu
00:00:00.000 : :Глава 1
00:08:21.500 : :Глава 2
00:17:59.912 : :Глава 3
00:26:58.157 : :Глава 4
00:35:23.371 : :Глава 5
00:44:55.983 : :Глава 6
00:51:43.557 : :Глава 7
01:03:05.614 : :Глава 8
01:13:33.367 : :Глава 9
01:21:19.957 : :Глава 10
01:30:19.831 : :Глава 11
01:40:15.926 : :Глава 12
01:46:28.547 : :Глава 13


_________________
Проголосуй за трекер Открытый торрент трекер - RUS-MEDIA.ORG

Проголосуй Открытый торрент трекер - RUS-MEDIA.ORG



реклама партнёра


Вернуться к началу
 Профиль Отправить личное сообщение  
 
   Похожие торренты   Автор   Торрент   Размер 
В этой теме нет новых непрочитанных сообщений. Взять живым или мертвым / Wanted: Dead or Alive [боевик, триллер, драма, 1987] BDRip, Mvo

salma3

65 | 30

2.18 ГБ

В этой теме нет новых непрочитанных сообщений. Взять живым или мертвым / Wanted: Dead or Alive [боевик, триллер, драма, 1987] BDRip, Mvo

salma3

66 | 30

1.45 ГБ

В этой теме нет новых непрочитанных сообщений. Взять живым или мертвым / Wanted: Dead or Alive [боевик, триллер, драма, криминал, 1987] BDRip 1080p, Mvo

salma3

59 | 14

10.82 ГБ

В этой теме нет новых непрочитанных сообщений. Живым или мертвым / Dead or Alive: Hanzaisha [боевик, триллер, драма, 1999] BDRip, Mvo

salma3

19 | 8

1.45 ГБ

В этой теме нет новых непрочитанных сообщений. Живым или мертвым / Dead or Alive: Hanzaisha [криминал, драма, триллер, 1999] BDRemux 1080p, Mvo

salma3

5 | 12

21.47 ГБ

В этой теме нет новых непрочитанных сообщений. Смерть зимой / Dead of Winter [ужасы, триллер, драма, 1987] BDRip 720p, Mvo=Dvo+Avo+Sub

salma3

42 | 33

5.6 ГБ

В этой теме нет новых непрочитанных сообщений. Смерть телохранителя / Охваченный пламенем / Man on Fire [боевик, триллер, драма, 1987] BDRip 720p, Mvo+Avo

salma3

65 | 27

4.36 ГБ


Начать новую тему Ответить на тему  [ 1 сообщение ] 




Для Мосгорсуда, Роскомнадзора и рекламодателей:: mosgorsud-torrent[собачка]yandex.ru