Торрент файл
скачать торрент магнет ссылка Добавлен: 26 авг 2017, 15:33
Размер: 41.45 ГБ
Сидеров: 19
Личеров: 11
Статус: (salma3)
Автор

СообщениеДобавлено: 26 авг 2017, 15:33 

В сети
Супермодератор
Аватара пользователя
Дата регистрации:
15 фев 2012, 16:44
Возраст: 28
Спасибо: 7060 / 2147
Сообщения: 59006
Год выхода: 2016
Жанр: Боевик, драма, приключения
Режиссер: Джеймс Грэй

В ролях: Чарли Ханнэм, Сиенна Миллер, Роберт Паттинсон, Том Холланд (II), Эдвард Эшли, Энгус Макфадьен, Иен МакДермид, Клайв Фрэнсис, Педро Коэльо, Мэтью Сандерлэнд

О фильме:
Фильм про полковника Фоссета, который хотел найти затерянный город. Фоссет является членом Географического Королевского общества, и его считали одним из лучших исследователей Южной Америки, во времена ХХ века. Он многие годы посвятил своим изучением, новым открытиям и написанию разных доводов. Но почему-то, больше всего его интересовали регионы Бразилии, он туда направлялся несколько раз, ездил примерно между 19, собрался разыскать потерянный город, который должен был находиться на территории Мату-Гроссо ( штат). Но странно то, что перед своим отъездом, он просил: « Если его исследовательская группа, не вернется к сроку, который назначен, искать их не нужно». Именно так и случилось, его группа не вернулась… Очень много раз, пытались соединится, связаться с группой Форесса, но по сей день маршрут экспедиции не установлен. Возможно, группа нашла этот город, и осталась там? Это нужно узнать обязательно



Страна: США
Продолжительность: 02:21:14
Перевод: Дублированный | Лицензия

Файл
Качество: BDRemux 1080p
Видео: MPEG-4 AVC, 1920x1080, 34.2 Мbit/s, 23.976 fps
Аудио #01: 48 kHz, DTS-HD MA, 5.1, 4031 Kbps | Дублированный | RUS |
Аудио #02: 48 kHz, DTS-HD MA, 5.1, 3840 Kbps | Оригинал | ENG |
Субтитры: Русские, английские

General
Unique ID : 181228315517374492737327996714909230656 (0x88574DD07DCF3417BAD4E361800CE640)
Complete name : F:VideoFULLThe.Lost.City.of.Z.2016.Lic.BDREMUX.1080p.ExKinoRay.mkv
Format : Matroska
Format version : Version 4 / Version 2
File size : 41.5 GiB
Duration : 2 h 21 min
Overall bit rate mode : Variable
Overall bit rate : 42.0 Mb/s
Encoded date : UTC 2017-08-23 05:10:16
Writing application : mkvmerge v15.0.0 ('Duel with the Devil') 64-bit
Writing library : libebml v1.3.5 + libmatroska v1.4.5

Video
ID : 1
Format : AVC
Format/Info : Advanced Video Codec
Format profile : High@L4.1
Format settings, CABAC : Yes
Format settings, RefFrames : 4 frames
Codec ID : V_MPEG4/ISO/AVC
Duration : 2 h 21 min
Bit rate mode : Variable
Bit rate : 34.2 Mb/s
Maximum bit rate : 37.0 Mb/s
Width : 1 920 pixels
Height : 1 080 pixels
Display aspect ratio : 16:9
Frame rate mode : Constant
Frame rate : 23.976 (24000/1001) FPS
Color space : YUV
Chroma subsampling : 4:2:0
Bit depth : 8 bits
Scan type : Progressive
Bits/(Pixel*Frame) : 0.688
Stream size : 33.7 GiB (81%)
Language : English
Default : Yes
Forced : No

Audio #1
ID : 2
Format : DTS
Format/Info : Digital Theater Systems
Format profile : MA / Core
Mode : 16
Format settings, Endianness : Big
Codec ID : A_DTS
Duration : 2 h 21 min
Bit rate mode : Variable / Constant
Bit rate : 4 031 kb/s / 1 509 kb/s
Channel(s) : 6 channels
Channel positions : Front: L C R, Side: L R, LFE
Sampling rate : 48.0 kHz
Frame rate : 93.750 FPS (512 SPF)
Bit depth : 24 bits
Compression mode : Lossless / Lossy
Stream size : 3.97 GiB (10%)
Title : Dub [License]
Language : Russian
Default : Yes
Forced : No

Audio #2
ID : 3
Format : DTS
Format/Info : Digital Theater Systems
Format profile : MA / Core
Mode : 16
Format settings, Endianness : Big
Codec ID : A_DTS
Duration : 2 h 21 min
Bit rate mode : Variable / Constant
Bit rate : 3 840 kb/s / 1 509 kb/s
Channel(s) : 6 channels
Channel positions : Front: L C R, Side: L R, LFE
Sampling rate : 48.0 kHz
Frame rate : 93.750 FPS (512 SPF)
Bit depth : 24 bits
Compression mode : Lossless / Lossy
Stream size : 3.74 GiB (9%)
Title : Original
Language : English
Default : No
Forced : No

Text #1
ID : 4
Format : UTF-8
Codec ID : S_TEXT/UTF8
Codec ID/Info : UTF-8 Plain Text
Duration : 2 h 10 min
Bit rate : 79 b/s
Count of elements : 1554
Stream size : 76.6 KiB (0%)
Title : Full
Language : Russian
Default : No
Forced : No

Text #2
ID : 5
Format : UTF-8
Codec ID : S_TEXT/UTF8
Codec ID/Info : UTF-8 Plain Text
Duration : 2 h 8 min
Bit rate : 43 b/s
Count of elements : 1380
Stream size : 41.5 KiB (0%)
Title : Full
Language : English
Default : No
Forced : No

Text #3
ID : 6
Format : UTF-8
Codec ID : S_TEXT/UTF8
Codec ID/Info : UTF-8 Plain Text
Duration : 2 h 10 min
Bit rate : 49 b/s
Count of elements : 1566
Stream size : 47.3 KiB (0%)
Title : SDH
Language : English
Default : No
Forced : No

Text #4
ID : 7
Format : UTF-8
Codec ID : S_TEXT/UTF8
Codec ID/Info : UTF-8 Plain Text
Duration : 2 h 11 min
Bit rate : 63 b/s
Count of elements : 1568
Stream size : 61.4 KiB (0%)
Title : SDH (Colored)
Language : English
Default : No
Forced : No

Menu
00:00:00.000 : en:00:00:00.000
00:08:21.751 : en:00:08:21.751
00:15:32.849 : en:00:15:32.849
00:21:29.038 : en:00:21:29.038
00:27:10.045 : en:00:27:10.045
00:34:57.637 : en:00:34:57.637
00:44:59.113 : en:00:44:59.113
00:49:36.432 : en:00:49:36.432
00:58:25.919 : en:00:58:25.919
01:04:43.338 : en:01:04:43.338
01:11:10.600 : en:01:11:10.600
01:21:22.294 : en:01:21:22.294
01:27:42.424 : en:01:27:42.424
01:30:42.854 : en:01:30:42.854
01:39:46.230 : en:01:39:46.230
01:43:59.984 : en:01:43:59.984
01:51:40.193 : en:01:51:40.193
01:56:11.089 : en:01:56:11.089
02:01:43.046 : en:02:01:43.046
02:08:34.373 : en:02:08:34.373


Релиз от: Автор релиза:


_________________
Проголосуй за трекер Открытый торрент трекер - RUS-MEDIA.ORG

Проголосуй Открытый торрент трекер - RUS-MEDIA.ORG


Вернуться к началу
 Профиль Отправить личное сообщение  
 
   Похожие торренты   Автор   Торрент   Размер 
В этой теме нет новых непрочитанных сообщений. Затерянный город Z / The Lost City of Z [Боевик, драма, приключения, 2016] Blu-Ray 1080p, Dub [Лицензия]

salma3

0 | 0

21.71 ГБ

В этой теме нет новых непрочитанных сообщений. Затерянный город Z / The Lost City of Z [Боевик, драма, биография, история, 2016] BDRip-AVC, Dub [Лицензия]

salma3

278 | 48

1.46 ГБ

В этой теме нет новых непрочитанных сообщений. Затерянный город Z / The Lost City of Z [Боевик, драма, биография, история, 2016] BDRip 720p, Dub [Лицензия]

salma3

0 | 0

8.29 ГБ

В этой теме нет новых непрочитанных сообщений. Затерянный город Z / The Lost City of Z [Боевик, драма, биография, история, 2016] BDRip 1080p, Dub [iTunes]

salma3

2314 | 1494

11.31 ГБ

В этой теме нет новых непрочитанных сообщений. Затерянный город Z / The Lost City of Z [Боевик, драма, биография, история, 2016] HDRip, Dub [iTunes]

salma3

3996 | 381

1.37 ГБ

В этой теме нет новых непрочитанных сообщений. Город Эмбер: Побег / City of Ember [фантастика, фэнтези, приключения, 2008] BDRemux 1080p, Dub [Лицензия]

salma3

20 | 13

14.84 ГБ

В этой теме нет новых непрочитанных сообщений. Затерянный мир / Land of the Lost [фэнтези, комедия, приключения, 2009] BDRemux 1080p, Dub

salma3

0 | 0

26.51 ГБ


Начать новую тему Ответить на тему  [ 1 сообщение ] 




Для Мосгорсуда, Роскомнадзора и рекламодателей:: mosgorsud-torrent[собачка]yandex.ru
cron