Торрент файл
скачать торрент магнет ссылка Добавлен: 24 авг 2017, 23:06
Размер: 7.76 ГБ
Сидеров: 119
Личеров: 73
Статус: (salma3)
Автор

СообщениеДобавлено: 24 авг 2017, 23:06 

Не в сети
Супермодератор
Аватара пользователя
Дата регистрации:
15 фев 2012, 16:44
Возраст: 28
Спасибо: 7290 / 2147
Сообщения: 70489
Год выхода: 2007
Жанр: боевик, комедия, приключения
Режиссер: Уолт Бекер

В ролях: Тим Аллен, Джон Траволта, Мартин Лоуренс, Уильям Х. Мэйси, Рэй Лиотта, Мариса Томей, Кевин Дюран, Стивен Тоболовски, М. К. Гейни, Джилл Хеннесси

О фильме: Четверо благоустроенных приятелей из зажиточного пригорода решают на время отвлечься от житейских проблем и вспомнить былые раздольные деньки, когда все четверо мечтали о байкерской свободе. Еженедельные встречи за бокалом безалкогольного пива в местном мотоклубе уже поднаскучили, и друзья решают рвануть в путешествие через все Штаты, с севера на юг, до самого Нью-Мексико.

Остается только зашвырнуть подальше надоевшие мобильники, надеть косухи, повязать банданы, и назваться «Реальными кабанами» — настоящими искателями приключений. А приключений будет немало. Ночевки под открытым небом, купание в горячем источнике, разведение костра с помощью собственной палатки, близкие контакты третьей степени с провинциальным шерифом и столкновение с оравой неподдельных, бородатых и нечесаных байкеров — зловещей бандой «Дель Фуэгос» под предводительством атамана Джека.

Пройти мимо байкеров-домоседов забияки из «Дель Фуэгос» просто так не могут, потому что они — банда. Схватка в лучших традициях классических вестернов неминуема, и еще неизвестно, что окажется сильнее — обветренные кулаки байкеров-южан, или сила духа Реальных Кабанов…



Выпущено: Buena Vista Pictures
Продолжительность: 01:39:39
Перевод: Дублированный (R5) + украинский дублированный (R5) + профессиональный двухголосый закадровый (П.Гланц и И.Королёва) + авторский одноголосый закадровый (В.Королёв)

Файл
Кодек: x264
Качество: BDRip (источник: Blu-ray Disc)
Видео: 1920x816 (2,35:1), 23.976 fps, 8970 kbps
Аудио #1: AC-3, 6 ch, 384 kbps (Rus)
Аудио #2: AC-3, 6 ch, 448 kbps (Ukr)
Аудио #3: AC-3, 6 ch, 448 kbps (Rus)
Аудио #4: AC-3, 6 ch, 448 kbps (Rus)
Аудио #5: AC-3, 6 ch, 448 kbps (Eng)
Субтитры: Русские, Английские

сэмпл


General
Unique ID : 236105235336957593295374842739597170443 (0xB1A036DACE29566A8F698A01062ED70B)
Complete name : D:Wild.Hogs.2007.BDRip.1080p.Rus.Ukr.Eng.mkv
Format : Matroska
Format version : Version 2
File size : 7.76 GiB
Duration : 1h 39mn
Overall bit rate : 11.1 Mbps
Movie name : Реальные кабаны / Wild Hogs (2007)
Encoded date : UTC 2015-05-12 12:44:33
Writing application : mkvmerge v5.8.0 ('No Sleep / Pillow') built on Sep 2 2012 15:37:04
Writing library : libebml v1.2.3 + libmatroska v1.3.0
Attachements : cover.png / logfile.log

Video
ID : 1
Format : AVC
Format/Info : Advanced Video Codec
Format profile : High@L4.1
Format settings, CABAC : Yes
Format settings, ReFrames : 5 frames
Codec ID : V_MPEG4/ISO/AVC
Duration : 1h 39mn
Bit rate : 8 970 Kbps
Width : 1 920 pixels
Height : 816 pixels
Display aspect ratio : 2.35:1
Frame rate mode : Constant
Frame rate : 23.976 fps
Color space : YUV
Chroma subsampling : 4:2:0
Bit depth : 8 bits
Scan type : Progressive
Bits/(Pixel*Frame) : 0.239
Stream size : 6.09 GiB (78%)
Title : Реальные кабаны / Wild Hogs (2007)
Writing library : x264 core 146 r0+2586 e393126 t_mod_Custom [8-bit@all X86_64]
Encoding settings : cabac=1 / ref=5 / deblock=1:-3:-3 / analyse=0x3:0x133 / me=umh / subme=10 / psy=1 / fade_compensate=0.00 / psy_rd=1.05:0.00 / mixed_ref=1 / me_range=32 / chroma_me=1 / trellis=2 / 8x8dct=1 / cqm=0 / deadzone=21,11 / fast_pskip=0 / chroma_qp_offset=-2 / threads=12 / lookahead_threads=3 / sliced_threads=0 / nr=0 / decimate=1 / interlaced=0 / bluray_compat=0 / constrained_intra=0 / fgo=0 / bframes=10 / b_pyramid=2 / b_adapt=2 / b_bias=0 / direct=3 / weightb=1 / open_gop=0 / weightp=2 / keyint=240 / keyint_min=23 / scenecut=40 / intra_refresh=0 / rc=2pass / mbtree=0 / bitrate=8970 / ratetol=1.0 / qcomp=0.70 / qpmin=0:0:0 / qpmax=69:69:69 / qpstep=4 / cplxblur=20.0 / qblur=0.5 / ip_ratio=1.40 / pb_ratio=1.30 / aq=1:0.70 / aq-sensitivity=10.00 / aq-factor=1.00:1.00:1.00 / aq2=0 / aq3=0
Language : English
Default : Yes
Forced : No

Audio #1
ID : 2
Format : AC-3
Format/Info : Audio Coding 3
Mode extension : CM (complete main)
Format settings, Endianness : Big
Codec ID : A_AC3
Duration : 1h 39mn
Bit rate mode : Constant
Bit rate : 384 Kbps
Channel(s) : 6 channels
Channel positions : Front: L C R, Side: L R, LFE
Sampling rate : 48.0 KHz
Bit depth : 16 bits
Compression mode : Lossy
Stream size : 274 MiB (3%)
Title : Дубляж, R5
Language : Russian
Default : Yes
Forced : No

Audio #2
ID : 3
Format : AC-3
Format/Info : Audio Coding 3
Mode extension : CM (complete main)
Format settings, Endianness : Big
Codec ID : A_AC3
Duration : 1h 39mn
Bit rate mode : Constant
Bit rate : 448 Kbps
Channel(s) : 6 channels
Channel positions : Front: L C R, Side: L R, LFE
Sampling rate : 48.0 KHz
Bit depth : 16 bits
Compression mode : Lossy
Stream size : 319 MiB (4%)
Title : Дубляж, R5
Language : Ukrainian
Default : No
Forced : No

Audio #3
ID : 4
Format : AC-3
Format/Info : Audio Coding 3
Mode extension : CM (complete main)
Format settings, Endianness : Big
Codec ID : A_AC3
Duration : 1h 39mn
Bit rate mode : Constant
Bit rate : 448 Kbps
Channel(s) : 6 channels
Channel positions : Front: L C R, Side: L R, LFE
Sampling rate : 48.0 KHz
Bit depth : 16 bits
Compression mode : Lossy
Stream size : 319 MiB (4%)
Title : Двухголосый закадровый, П.Гланц и И.Королёва
Language : Russian
Default : No
Forced : No

Audio #4
ID : 5
Format : AC-3
Format/Info : Audio Coding 3
Mode extension : CM (complete main)
Format settings, Endianness : Big
Codec ID : A_AC3
Duration : 1h 39mn
Bit rate mode : Constant
Bit rate : 448 Kbps
Channel(s) : 6 channels
Channel positions : Front: L C R, Side: L R, LFE
Sampling rate : 48.0 KHz
Bit depth : 16 bits
Compression mode : Lossy
Stream size : 319 MiB (4%)
Title : Одноголосый закадровый, В.Королёв
Language : Russian
Default : No
Forced : No

Audio #5
ID : 6
Format : AC-3
Format/Info : Audio Coding 3
Mode extension : CM (complete main)
Format settings, Endianness : Big
Codec ID : A_AC3
Duration : 1h 39mn
Bit rate mode : Constant
Bit rate : 448 Kbps
Channel(s) : 6 channels
Channel positions : Front: L C R, Side: L R, LFE
Sampling rate : 48.0 KHz
Bit depth : 16 bits
Compression mode : Lossy
Stream size : 319 MiB (4%)
Title : English
Language : English
Default : No
Forced : No

Text #1
ID : 7
Format : UTF-8
Codec ID : S_TEXT/UTF8
Codec ID/Info : UTF-8 Plain Text
Title : Russian
Language : Russian
Default : No
Forced : No

Text #2
ID : 8
Format : UTF-8
Codec ID : S_TEXT/UTF8
Codec ID/Info : UTF-8 Plain Text
Title : English
Language : English
Default : No
Forced : No

Menu
00:00:00.000 : en:The Boys
00:08:21.959 : en:Road Trip
00:14:31.370 : en:No Rules
00:20:28.852 : en:The Real Deal
00:28:11.981 : en:The Day Is Today
00:34:27.231 : en:Del Fuego's Bar
00:40:59.081 : en:Getting Dudley's Bike Back
00:47:19.461 : en:Madrid
00:53:19.738 : en:Bull Slap
01:01:23.846 : en:Bobby And The Del Fuegos
01:11:38.919 : en:Jack Comes To Madrid
01:16:41.096 : en:Dudley vs. Del Fuegos
01:21:53.783 : en:Standoff At The Diner
01:29:19.312 : en:Leaving Madrid/Trip's End
01:34:07.725 : en:Credits
x264 [info]: frame I:1370 Avg QP:16.51 size:270512
x264 [info]: frame P:36546 Avg QP:18.75 size: 83467
x264 [info]: frame B:105429 Avg QP:21.09 size: 31084
x264 [info]: consecutive B-frames: 2.9% 5.9% 8.3% 43.0% 15.9% 21.4% 1.0% 1.1% 0.2% 0.1% 0.2%


_________________
Проголосуй за трекер Открытый торрент трекер - RUS-MEDIA.ORG

Проголосуй Открытый торрент трекер - RUS-MEDIA.ORG


Вернуться к началу
 Профиль Отправить личное сообщение  
 
   Похожие торренты   Автор   Торрент   Размер 
В этой теме нет новых непрочитанных сообщений. Реальные кабаны [01-16 из 16] (2010) HDTV 1080i от MediaClub

salma3

23 | 42

50.98 ГБ

В этой теме нет новых непрочитанных сообщений. В диких условиях / Into the Wild [драма, приключения, биография, 2007] BDRip 1080p, Dvo+Sub [НТВ+]

salma3

60 | 6

7.94 ГБ

В этой теме нет новых непрочитанных сообщений. В диких условиях / Into the Wild [драма, приключения, биография, 2007] BDRip, Dvo+Sub [НТВ+]

salma3

49 | 28

1.46 ГБ

В этой теме нет новых непрочитанных сообщений. В диких условиях / Into the Wild [драма, приключения, биография, 2007] BDRip, Dvo+Sub [НТВ+]

salma3

96 | 31

2.91 ГБ

В этой теме нет новых непрочитанных сообщений. Дикие гуси / The Wild Geese [Боевик, драма, приключения, 1978] BDRip 720p, Mvo+Dvo+Sub

salma3

76 | 20

8.12 ГБ

В этой теме нет новых непрочитанных сообщений. Последний легион / The Last Legion [фэнтези, боевик, приключения, 2007] BDRip-HEVC 1080p, Dub

salma3

23 | 6

4.68 ГБ

В этой теме нет новых непрочитанных сообщений. Дикий Билл / Wild Bill [Боевик, вестерн, биография, 1995] BDRip 1080p, Dvo

salma3

16 | 15

8.17 ГБ


Начать новую тему Ответить на тему  [ 1 сообщение ] 




Для Мосгорсуда, Роскомнадзора и рекламодателей:: mosgorsud-torrent[собачка]yandex.ru
cron