Торрент файл
скачать торрент магнет ссылка Добавлен: 23 авг 2017, 21:08
Размер: 7.6 ГБ
Сидеров: 43
Личеров: 13
Статус: (salma3)
Автор

СообщениеДобавлено: 23 авг 2017, 21:08 

Не в сети
Супермодератор
Аватара пользователя
Дата регистрации:
15 фев 2012, 16:44
Возраст: 28
Спасибо: 6915 / 2147
Сообщения: 52578
Год выхода: 2013
Жанр: ужасы, приключения
Режиссер: Элай Рот

В ролях: Лоренца Иззо, Ариэль Леви, Дэрил Сабара, Кирби Блисс Блэнтон, Магда Апанович, Скай Феррейра, Николас Мартинез, Аарон Барнс, Игнасия Алламанд, Рамон Льяо, ...

О фильме: Группа студентов и активистов путешествует по Амазонке, их цель — спасти вымирающее племя коренных жителей сельвы. Но авиакатастрофа рушит их планы — студенты становятся заложниками племени людоедов, которое они так защищали…



Страна: США, Чили, Канада
Продолжительность: 01:40:54
Перевод: Любительский (двуголосый закадровый) DeadSno & den904
- Любительский (одноголосый, закадровый) Xixidok

Кодек: x264
Качество: BDRip 1080p
Видео: 1920x804, 8000 kbps, 23,976 fps
Аудио #1: AC-3, 6 ch, 640 kbps (Rus) - DVOL DeadSno & den904
Аудио #2: AC-3, 6 ch, 640 kbps (Rus) - VO Xixidok
Аудио #3: DTS, 6 ch, 1509 kbps (Eng)
Субтитры: Русские, Английские

x264 [info]: frame I:1238 Avg QP:16.60 size:194322
x264 [info]: frame P:40321 Avg QP:19.19 size: 70745
x264 [info]: frame B:103590 Avg QP:21.17 size: 28545
x264 [info]: consecutive B-frames: 5.0% 8.5% 15.6% 25.4% 12.7% 27.6% 2.6% 0.8% 0.6% 0.3% 0.9%

Общее
Уникальный идентификатор : 188873351746565419068373001492154357166 (0x8E17AF33B1DB715BA42F906D7BFD15AE)
Полное имя : Зеленый ад (The Green Inferno) 2013 BDRip 1080p.mkv
Формат : Matroska
Версия формата : Version 2
Размер файла : 7,60 Гбайт
Продолжительность : 1 ч. 40 м.
Общий поток : 10,8 Мбит/сек
Дата кодирования : UTC 2017-08-23 09:44:33
Программа кодирования : mkvmerge v4.0.0 ('The Stars were mine') сборка от Jun 6 2010 16:18:42
Библиотека кодирования : libebml v1.0.0 + libmatroska v1.0.0

Видео
Идентификатор : 1
Формат : AVC
Формат/Информация : Advanced Video Codec
Профиль формата : High@L4.1
Параметр CABAC формата : Да
Параметр ReFrames формата : 5 кадров
Идентификатор кодека : V_MPEG4/ISO/AVC
Продолжительность : 1 ч. 40 м.
Битрейт : 8000 Кбит/сек
Ширина : 1920 пикселей
Высота : 804 пикселя
Соотношение сторон : 2,40:1
Режим частоты кадров : Постоянный
Частота кадров : 23,976 (24000/1001) кадра/сек
Цветовое пространство : YUV
Субдискретизация насыщенности : 4:2:0
Битовая глубина : 8 бит
Тип развёртки : Прогрессивная
Бит/(Пиксели*Кадры) : 0.216
Размер потока : 5,49 Гбайт (72%)
Библиотека кодирования : x264 core 146 r2538 121396c
Настройки программы : cabac=1 / ref=5 / deblock=1:-3:-3 / analyse=0x3:0x133 / me=umh / subme=11 / psy=1 / psy_rd=1.00:0.00 / mixed_ref=1 / me_range=32 / chroma_me=1 / trellis=2 / 8x8dct=1 / cqm=0 / deadzone=21,11 / fast_pskip=0 / chroma_qp_offset=-2 / threads=12 / lookahead_threads=2 / sliced_threads=0 / nr=0 / decimate=0 / interlaced=0 / bluray_compat=0 / constrained_intra=0 / bframes=10 / b_pyramid=2 / b_adapt=2 / b_bias=0 / direct=3 / weightb=1 / open_gop=0 / weightp=2 / keyint=240 / keyint_min=23 / scenecut=40 / intra_refresh=0 / rc=2pass / mbtree=0 / bitrate=8000 / ratetol=1.0 / qcomp=0.60 / qpmin=0 / qpmax=69 / qpstep=4 / cplxblur=20.0 / qblur=0.5 / ip_ratio=1.40 / pb_ratio=1.30 / aq=1:0.80
Язык : English
Default : Нет
Forced : Нет

Аудио #1
Идентификатор : 2
Формат : AC-3
Формат/Информация : Audio Coding 3
Расширение режима : CM (complete main)
Параметр Endianness формата : Big
Идентификатор кодека : A_AC3
Продолжительность : 1 ч. 40 м.
Вид битрейта : Постоянный
Битрейт : 640 Кбит/сек
Каналы : 6 каналов
Расположение каналов : Front: L C R, Side: L R, LFE
Частота : 48,0 КГц
Частота кадров : 31,250 кадров/сек (1536 spf)
Метод сжатия : С потерями
Размер потока : 462 Мбайт (6%)
Заголовок : DVOL DeadSno & den904
Язык : Russian
Default : Нет
Forced : Нет

Аудио #2
Идентификатор : 3
Формат : AC-3
Формат/Информация : Audio Coding 3
Расширение режима : CM (complete main)
Параметр Endianness формата : Big
Идентификатор кодека : A_AC3
Продолжительность : 1 ч. 40 м.
Вид битрейта : Постоянный
Битрейт : 640 Кбит/сек
Каналы : 6 каналов
Расположение каналов : Front: L C R, Side: L R, LFE
Частота : 48,0 КГц
Частота кадров : 31,250 кадров/сек (1536 spf)
Метод сжатия : С потерями
Размер потока : 462 Мбайт (6%)
Заголовок : VO Xixidok
Язык : Russian
Default : Нет
Forced : Нет

Аудио #3
Идентификатор : 4
Формат : DTS
Формат/Информация : Digital Theater Systems
Режим : 16
Параметр Endianness формата : Big
Идентификатор кодека : A_DTS
Продолжительность : 1 ч. 40 м.
Вид битрейта : Постоянный
Битрейт : 1509 Кбит/сек
Каналы : 6 каналов
Расположение каналов : Front: L C R, Side: L R, LFE
Частота : 48,0 КГц
Частота кадров : 93,750 кадра/сек (512 spf)
Битовая глубина : 24 бит
Метод сжатия : С потерями
Размер потока : 1,06 Гбайт (14%)
Язык : English
Default : Нет
Forced : Нет

Текст #1
Идентификатор : 5
Формат : UTF-8
Идентификатор кодека : S_TEXT/UTF8
Идентификатор кодека/Информация : UTF-8 Plain Text
Язык : Russian
Default : Нет
Forced : Нет

Текст #2
Идентификатор : 6
Формат : UTF-8
Идентификатор кодека : S_TEXT/UTF8
Идентификатор кодека/Информация : UTF-8 Plain Text
Язык : English
Default : Нет
Forced : Нет



_________________
Проголосуй за трекер Открытый торрент трекер - RUS-MEDIA.ORG

Проголосуй Открытый торрент трекер - RUS-MEDIA.ORG



реклама партнёра


Вернуться к началу
 Профиль Отправить личное сообщение  
 
   Похожие торренты   Автор   Торрент   Размер 
В этой теме нет новых непрочитанных сообщений. Зеленый ад / The Green Inferno (Элай Рот) [Ужасы, приключения, 2013] WEB-DL 720p, avo

Dracon

937 | 79

3.05 ГБ

В этой теме нет новых непрочитанных сообщений. Зеленый ад / The Green Inferno (Элай Рот) [Ужасы, приключения, 2013] WEB-DLRip, dvo

Dracon

433 | 29

1.37 ГБ

В этой теме нет новых непрочитанных сообщений. Зеленый ад / The Green Inferno (Элай Рот) [Ужасы, приключения, 2013] WEB-DLRip, avo

Dracon

4580 | 163

1.37 ГБ

В этой теме нет новых непрочитанных сообщений. Зеленый огонь / Green Fire [Драма, приключения, 1954] DVDRip, Mvo

salma3

18 | 3

1.37 ГБ

В этой теме нет новых непрочитанных сообщений. Зеленый сойлент / Soylent Green [фантастика, триллер, криминал, 1973] BDRip-AVC, Dvo

salma3

6 | 0

2.18 ГБ

В этой теме нет новых непрочитанных сообщений. Преисподняя / Inferno [Ужасы, детектив, 1980] BDRip 1080p, Mvo+Avo+Sub

salma3

32 | 28

10.22 ГБ

В этой теме нет новых непрочитанных сообщений. Режь и беги / Cut and Run / Inferno in diretta [ужасы, триллер, приключения, 1985] DVD5, Avo

salma3

23 | 9

4.28 ГБ


Начать новую тему Ответить на тему  [ 1 сообщение ] 




Для Мосгорсуда, Роскомнадзора и рекламодателей:: mosgorsud-torrent[собачка]yandex.ru
cron