Торрент файл
скачать торрент магнет ссылка Добавлен: 19 авг 2017, 13:10
Размер: 10.13 ГБ
Сидеров: 0
Личеров: 0
Статус: (salma3)
Автор

СообщениеДобавлено: 19 авг 2017, 13:10 

В сети
Супермодератор
Аватара пользователя
Дата регистрации:
15 фев 2012, 16:44
Возраст: 28
Спасибо: 7203 / 2147
Сообщения: 65043
Год выхода: 2008
Жанр: Боевик, триллер, драма
Режиссер: Джон Мур

В ролях: Марк Уолберг, Мила Кунис, Бо Бриджес, Лудакрис, Крис О’Доннелл, Донал Лог, Амори Ноласко, Кейт Бёртон, Ольга Куриленко, Ротафорд Грэй

О фильме:
Сотруднику Управления по борьбе с наркотиками не на что жаловаться. У него есть все: отличная работа, любящая жена и маленький ребенок. Словом, не жизнь, а американская мечта, которая однажды оборачивается самым страшным кошмаром: какой-то психопат убивает его семью.
Отныне у Макса только одна цель — отомстить. Но месть осложняется тем, что его несправедливо обвиняют в убийстве, и все, кому не лень, начинают на него охоту — Полицейское управление Нью-Йорка, уголовный мир и городские власти. Теперь ему уже действительно нечего терять и нечего опасаться. При такой отчаянной решимости только Макс Пэйн способен пролить свет на все тайны, связанные с уничтожением его семьи, и главное, получить удовлетворение от мести, которой он так жаждет



Страна: СШАFirm Films, Foxtor Productions
Продолжительность: 01:40:11
Перевод: Профессиональный (полное дублирование) | Blu-ray CEE

Файл
Качество: WEB-DL 1080p
Формат: MKV
Кодек: MPEG-4 AVC
Видео: 1920x1080 (16:9), 23,976 fps, MPEG-4 AVC ~ 11,8 Мbps avg, 0.238 bit/pixel
Аудио: DTS, 48,0 kHz, 6 ch, ~755.00 kbps avg | русский | Профессиональный (полное дублирование) | Blu-ray CEE
Аудио: АС3, 48,0 kHz, 6 ch, ~384.00 kbps avg | украинский | Профессиональный (полное дублирование) | R5
Аудио: DTS, 48,0 kHz, 6 ch, ~1509.00 kbps avg | английский | Оригинал
Субтитры: Русские, английские
Семпл

Общее
Уникальный идентификатор : 236983885922235396141042485658663245266 (0xB2496FAC57AF81BDBF7E09F66D3FD5D2)
Полное имя : Max.Payne.2008.Theatrical.Cut.Open.Matte.1080p.WEB-DL.Rus.Ukr.Eng.HDCLUB.mkv
Формат : Matroska
Версия формата : Version 4 / Version 2
Размер файла : 10,1 Гбайт
Продолжительность : 1 ч. 40 м.
Режим общего битрейта : Переменный
Общий поток : 14,5 Мбит/сек
Название фильма : Max.Payne.2008.Theatrical.Cut.Open.Matte.1080p.WEB-DL.Rus.Ukr.Eng.HDCLUB-spartanec163
Дата кодирования : UTC 2017-08-05 13:22:26
Программа кодирования : mkvmerge v8.3.0 ('Over the Horizon') 64bit
Библиотека кодирования : libebml v1.3.1 + libmatroska v1.4.2

Видео
Идентификатор : 1
Формат : AVC
Формат/Информация : Advanced Video Codec
Профиль формата : High@L4
Параметр CABAC формата : Да
Параметр ReFrames формата : 4 кадра
Идентификатор кодека : V_MPEG4/ISO/AVC
Продолжительность : 1 ч. 40 м.
Вид битрейта : Переменный
Битрейт : 11,8 Мбит/сек
Максимальный битрейт : 15,0 Мбит/сек
Ширина : 1920 пикселей
Высота : 1080 пикселей
Соотношение сторон : 16:9
Режим частоты кадров : Постоянный
Частота кадров : 23,976 (24000/1001) кадра/сек
Цветовое пространство : YUV
Субдискретизация насыщенности : 4:2:0
Битовая глубина : 8 бит
Тип развёртки : Прогрессивная
Бит/(Пиксели*Кадры) : 0.238
Размер потока : 8,27 Гбайт (82%)
Заголовок : WEB-DL 1080p (Amazon)
Язык : English
Default : Да
Forced : Нет
Цветовой диапазон : Limited
Основные цвета : BT.709
Характеристики трансфера : BT.709
Коэффициенты матрицы : BT.709

Аудио #1
Идентификатор : 2
Формат : DTS
Формат/Информация : Digital Theater Systems
Режим : 16
Параметр Endianness формата : Big
Идентификатор кодека : A_DTS
Продолжительность : 1 ч. 39 м.
Вид битрейта : Постоянный
Битрейт : 755 Кбит/сек
Каналы : 6 каналов
Расположение каналов : Front: L C R, Side: L R, LFE
Частота : 48,0 КГц
Частота кадров : 93,750 кадра/сек (512 spf)
Битовая глубина : 24 бит
Метод сжатия : С потерями
Размер потока : 539 Мбайт (5%)
Заголовок : DTS 5.1 768Kbps (Дубляж, Blu-ray CEE)
Язык : Russian
Default : Да
Forced : Нет

Аудио #2
Идентификатор : 3
Формат : AC-3
Формат/Информация : Audio Coding 3
Параметр Endianness формата : Big
Идентификатор кодека : A_AC3
Продолжительность : 1 ч. 39 м.
Вид битрейта : Постоянный
Битрейт : 384 Кбит/сек
Каналы : 6 каналов
Расположение каналов : Front: L C R, Side: L R, LFE
Частота : 48,0 КГц
Частота кадров : 31,250 кадров/сек (1536 spf)
Битовая глубина : 16 бит
Метод сжатия : С потерями
Размер потока : 274 Мбайт (3%)
Заголовок : AC3 5.1 384Kbps (Дубляж, R5)
Язык : Ukrainian
Default : Нет
Forced : Нет

Аудио #3
Идентификатор : 4
Формат : DTS
Формат/Информация : Digital Theater Systems
Режим : 16
Параметр Endianness формата : Big
Идентификатор кодека : A_DTS
Продолжительность : 1 ч. 40 м.
Вид битрейта : Постоянный
Битрейт : 1509 Кбит/сек
Каналы : 6 каналов
Расположение каналов : Front: L C R, Side: L R, LFE
Частота : 48,0 КГц
Частота кадров : 93,750 кадра/сек (512 spf)
Битовая глубина : 24 бит
Метод сжатия : С потерями
Размер потока : 1,06 Гбайт (10%)
Заголовок : DTS 5.1 1536Kbps (Оригинал)
Язык : English
Default : Нет
Forced : Нет

Текст #1
Идентификатор : 5
Формат : UTF-8
Идентификатор кодека : S_TEXT/UTF8
Идентификатор кодека/Информация : UTF-8 Plain Text
Продолжительность : 1 ч. 38 м.
Битрейт : 54 бит/сек
ElementCount : 774
Размер потока : 39,8 Кбайт (0%)
Язык : Russian
Default : Нет
Forced : Нет

Текст #2
Идентификатор : 6
Формат : UTF-8
Идентификатор кодека : S_TEXT/UTF8
Идентификатор кодека/Информация : UTF-8 Plain Text
Продолжительность : 1 ч. 38 м.
Битрейт : 32 бит/сек
ElementCount : 750
Размер потока : 23,6 Кбайт (0%)
Язык : English
Default : Нет
Forced : Нет

Текст #3
Идентификатор : 7
Формат : UTF-8
Идентификатор кодека : S_TEXT/UTF8
Идентификатор кодека/Информация : UTF-8 Plain Text
Продолжительность : 1 ч. 38 м.
Битрейт : 42 бит/сек
ElementCount : 951
Размер потока : 30,4 Кбайт (0%)
Заголовок : SDH
Язык : English
Default : Нет
Forced : Нет

Меню
00:00:00.000 : en:Drowning
00:02:10.005 : en:Cold Case Unit
00:04:29.060 : en:Nice Watch
00:08:32.136 : en:New Friends
00:13:49.953 : en:Natasha
00:17:05.482 : en:Crime Scene
00:21:19.068 : en:Connections
00:23:21.399 : en:Too Late
00:26:26.792 : en:Grief and Blame
00:30:34.581 : en:Internal Affairs
00:32:49.800 : en:Tattoo Link
00:34:56.009 : en:Unlikely Ally
00:37:26.242 : en:Valkyrie Protection
00:43:03.037 : en:Devil's Army
00:48:57.599 : en:Ten Minutes
00:53:10.351 : en:Jason Tells All
00:59:39.490 : en:Firefight
01:02:15.312 : en:Combat Edge
01:05:48.942 : en:Invincible
01:13:04.502 : en:Kingpin
01:15:24.892 : en:Not Yet
01:18:40.462 : en:Valkyr Effects
01:20:22.856 : en:On The Run
01:23:38.259 : en:Unstoppable
01:26:16.375 : en:Showdown
01:31:11.628 : en:Angel Vision
01:32:22.203 : en:End Titles
01:38:26.563 : en:Unfinished Business


_________________
Проголосуй за трекер Открытый торрент трекер - RUS-MEDIA.ORG

Проголосуй Открытый торрент трекер - RUS-MEDIA.ORG


Вернуться к началу
 Профиль Отправить личное сообщение  
 
   Похожие торренты   Автор   Торрент   Размер 
В этой теме нет новых непрочитанных сообщений. Макс Пэйн / Max Payne [боевик, триллер, драма, 2008] WEB-DL 1080p, Dub [Open Matte] [Unrated]

salma3

0 | 0

13.95 ГБ

В этой теме нет новых непрочитанных сообщений. Макс Пэйн / Max Payne [боевик, триллер, драма, 2008] BDRemux 1080p, Dub [Unrated]

salma3

4 | 2

31.17 ГБ

В этой теме нет новых непрочитанных сообщений. Макс Пэйн / Max Payne [боевик, триллер, драма, 2008] BDRip 720p, Dub [Unrated]

salma3

0 | 0

5.76 ГБ

В этой теме нет новых непрочитанных сообщений. Хранители / Watchmen [фантастика, триллер, драма, 2009] WEB-DL 1080p, Dub [Театральная версия] [Open Matte]

salma3

0 | 4

19.54 ГБ

В этой теме нет новых непрочитанных сообщений. Хранители / Watchmen [фантастика, триллер, драма, 2009] WEB-DL 1080p, Dub [Театральная версия] [Open Matte]

salma3

9 | 5

15.07 ГБ

В этой теме нет новых непрочитанных сообщений. Другой мир / Underworld [фантастика, боевик, 2003] BDRip-AVC, Dub [Театральная версия] [Open Matte]

salma3

0 | 0

1.8 ГБ

В этой теме нет новых непрочитанных сообщений. Версия / Rendition [триллер, драма, 2007] WEB-DL 1080p, Mvo [Open Matte]

salma3

17 | 4

11.93 ГБ


Начать новую тему Ответить на тему  [ 1 сообщение ] 




Для Мосгорсуда, Роскомнадзора и рекламодателей:: mosgorsud-torrent[собачка]yandex.ru
cron