Торрент файл
скачать торрент магнет ссылка Добавлен: 16 авг 2017, 12:08
Размер: 27.59 ГБ
Сидеров: 0
Личеров: 0
Статус: (salma3)
Автор

СообщениеДобавлено: 16 авг 2017, 12:08 

Не в сети
Супермодератор
Аватара пользователя
Дата регистрации:
15 фев 2012, 16:44
Возраст: 28
Спасибо: 6667 / 2146
Сообщения: 46100
Год выхода: 1996
Жанр: Боевик, триллер, приключения
Режиссер: Жан-Клод Ван Дамм

В ролях: Жан-Клод Ван Дамм, Роджер Мур, Джеймс Римар, Джанет Ганн, Джек МакГи, Аки Алеонг, АбДель Кисси, Луис Мэндилор, Чанг Чинг Пенг Чаплин, Райан Кутрона, Шейн Майер, Мэтт Лион, Джен Санг Отербридж, Питер Вонг, Китао Кодзи, Хэбби Хеск, Сезар Карнейру, Такис Триггелис, Аздин Нури, Стефанос Мильцакакис,

О фильме:
Было время, когда в мире еще хватало места для пиратской резни, ловушек контрабандистов, работорговцев и древних тайн загадочного Востока. Когда настоящие мужчины могли отправиться на поиски невероятных приключений. Уличный преступник отправляется в путешествие в поисках своего прошлого и будущего. Его одиссея проходит через самые экзотические страны и живописнейшие уголки земного шара, от подворотен Нью-Йорка до загадочного волшебного тибетского Затерянного Города, где становится для него испытанием на честь и мужество в древних мифических состязаниях «Ган-генг» — боях до победного конца лучших бойцов со всего мира за обладание вожделенным призом — Золотым Драконом.



Страна: США
Продолжительность: 01:34:34
Перевод: Профессиональный многоголосый, профессиональный двухголосый, авторский

Файл
Кодек: MPEG-4 AVC
Качество: Blu-Ray Remux 1080p
Видео: 32976 Кбит/с, 1920x1080, 23.976 кадр/с

Аудио 1: Английский: DTS-HD Master Audio / 4439 kbps 5.1 / 48 kHz / 16-bit (DTS Core: 5.1 / 48 kHz / 1509 kbps / 16-bit)
Аудио 2: Русский: DTS Audio Russian 1509 kbps 5.1 / 48 kHz / 1509 kbps / 24-bit - Профессиональный двухголосый закадровый (Twister)
Аудио 3: Русский: Dolby Digital Audio Russian 192 kbps 2.0 / 48 kHz / 192 kbps / DN -4dB - Профессиональный многоголосый закадровый (ТК "Россия" (студия Нота)_
Аудио 4: Русский: Dolby Digital Audio Russian 192 kbps 2.0 / 48 kHz / 192 kbps / DN -4d - Профессиональный многоголосый закадровый (ОРТ)
Аудио 5: Русский: Dolby Digital Audio Russian 192 kbps 2.0 / 48 kHz / 192 kbps / DN -4dB - Профессиональный двухголосый закадровый (ТВЦ)
Аудио 6: Русский: DTS Audio Russian 1509 kbps 5.1 / 48 kHz / 1509 kbps / 24-bit - Авторский (Ю.Живов)
Аудио 7: Русский: Dolby Digital Audio Russian 192 kbps 2.0 / 48 kHz / 192 kbps / DN -4dB - Авторский (А.Гаврилов)
Аудио 8: Русский: Dolby Digital Audio Russian 192 kbps 2.0 / 48 kHz / 192 kbps / DN -4dB - Авторский (А.Кашкин)
Аудио 9: Русский: Dolby Digital Audio Russian 192 kbps 2.0 / 48 kHz / 192 kbps / DN -4dB - Авторский (Визгунов)
Аудио 10: Русский: Dolby Digital Audio Russian 192 kbps 2.0 / 48 kHz / 192 kbps / DN -4dB - Авторский (Кузнецов)
Субтитры: Русские, английские
Главы: Есть

Общее
Уникальный идентификатор : 250549493463943478190144799589800209791 (0xBC7E13C3775391EDB3E90AEC83A1ED7F)
Полное имя : D:РЕМУКС!!!!!РАЗВ поисках приключений.BDRemux.mkv
Формат : Matroska
Версия формата : Version 4 / Version 2
Размер файла : 27,6 Гбайт
Продолжительность : 1 ч. 34 м.
Режим общего битрейта : Переменный
Общий поток : 41,8 Мбит/сек
Название фильма : В поисках приключений.BDRemux.thx:SPOMOPS.
Дата кодирования : UTC 2016-06-28 10:57:07
Программа кодирования : mkvmerge v6.1.0 ('Old Devil') built on Mar 4 2013 09:10:42
Библиотека кодирования : libebml v1.3.0 + libmatroska v1.4.0

Видео
Идентификатор : 1
Формат : AVC
Формат/Информация : Advanced Video Codec
Профиль формата : High@L4.1
Параметр CABAC формата : Да
Параметр ReFrames формата : 4 кадра
Идентификатор кодека : V_MPEG4/ISO/AVC
Продолжительность : 1 ч. 34 м.
Вид битрейта : Переменный
Максимальный битрейт : 35,0 Мбит/сек
Ширина : 1920 пикселей
Высота : 1080 пикселей
Соотношение сторон : 16:9
Режим частоты кадров : Постоянный
Частота кадров : 23,976 кадра/сек
Цветовое пространство : YUV
Субдискретизация насыщенности : 4:2:0
Битовая глубина : 8 бит
Тип развёртки : Прогрессивная
Default : Да
Forced : Нет
Основные цвета : BT.709
Характеристики трансфера : BT.709
Коэффициенты матрицы : BT.709

Аудио #1
Идентификатор : 2
Формат : DTS
Формат/Информация : Digital Theater Systems
Профиль формата : MA / Core
Режим : 16
Параметр Endianness формата : Big
Идентификатор кодека : A_DTS
Продолжительность : 1 ч. 34 м.
Вид битрейта : Переменный
Битрейт : Неизвестно / 1509 Кбит/сек
Каналы : 6 каналов
Расположение каналов : Front: L C R, Side: L R, LFE
Частота : 48,0 КГц
Битовая глубина : 24 бит
Метод сжатия : Без потерь / Lossy
Заголовок : Английский DTS-HD MA 4439 kbps - Оригинал
Язык : English
Default : Нет
Forced : Нет

Аудио #2
Идентификатор : 3
Формат : DTS
Формат/Информация : Digital Theater Systems
Режим : 16
Параметр Endianness формата : Big
Идентификатор кодека : A_DTS
Продолжительность : 1 ч. 34 м.
Вид битрейта : Постоянный
Битрейт : 1509 Кбит/сек
Каналы : 6 каналов
Расположение каналов : Front: L C R, Side: L R, LFE
Частота : 48,0 КГц
Битовая глубина : 24 бит
Метод сжатия : С потерями
Размер потока : 1021 Мбайт (4%)
Заголовок : Русский DTS 1509 kbps - ПД (Twister)
Язык : Russian
Default : Да
Forced : Нет

Аудио #3
Идентификатор : 4
Формат : AC-3
Формат/Информация : Audio Coding 3
Расширение режима : CM (complete main)
Параметр Endianness формата : Big
Идентификатор кодека : A_AC3
Продолжительность : 1 ч. 34 м.
Вид битрейта : Постоянный
Битрейт : 192 Кбит/сек
Каналы : 2 канала
Расположение каналов : Front: L R
Частота : 48,0 КГц
Битовая глубина : 16 бит
Метод сжатия : С потерями
Размер потока : 130 Мбайт (0%)
Заголовок : Русский АСЗ 192 kbps - ПМ (ТК "Россия")
Язык : Russian
Default : Нет
Forced : Нет

Аудио #4
Идентификатор : 5
Формат : AC-3
Формат/Информация : Audio Coding 3
Расширение режима : CM (complete main)
Параметр Endianness формата : Big
Идентификатор кодека : A_AC3
Продолжительность : 1 ч. 34 м.
Вид битрейта : Постоянный
Битрейт : 192 Кбит/сек
Каналы : 2 канала
Расположение каналов : Front: L R
Частота : 48,0 КГц
Битовая глубина : 16 бит
Метод сжатия : С потерями
Размер потока : 130 Мбайт (0%)
Заголовок : Русский АСЗ 192 kbps - ПМ (ОРТ)
Язык : Russian
Default : Нет
Forced : Нет

Аудио #5
Идентификатор : 6
Формат : AC-3
Формат/Информация : Audio Coding 3
Расширение режима : CM (complete main)
Параметр Endianness формата : Big
Идентификатор кодека : A_AC3
Продолжительность : 1 ч. 34 м.
Вид битрейта : Постоянный
Битрейт : 192 Кбит/сек
Каналы : 2 канала
Расположение каналов : Front: L R
Частота : 48,0 КГц
Битовая глубина : 16 бит
Метод сжатия : С потерями
Размер потока : 130 Мбайт (0%)
Заголовок : Русский АСЗ 192 kbps - ПД (ТВЦ)
Язык : Russian
Default : Нет
Forced : Нет

Аудио #6
Идентификатор : 7
Формат : DTS
Формат/Информация : Digital Theater Systems
Режим : 16
Параметр Endianness формата : Big
Идентификатор кодека : A_DTS
Продолжительность : 1 ч. 34 м.
Вид битрейта : Постоянный
Битрейт : 1510 Кбит/сек
Каналы : 6 каналов
Расположение каналов : Front: L C R, Side: L R, LFE
Частота : 48,0 КГц
Битовая глубина : 24 бит
Метод сжатия : С потерями
Размер потока : 1021 Мбайт (4%)
Заголовок : Русский DTS 1509 kbps - АП (Ю.Живов)
Язык : Russian
Default : Нет
Forced : Нет

Аудио #7
Идентификатор : 8
Формат : AC-3
Формат/Информация : Audio Coding 3
Расширение режима : CM (complete main)
Параметр Endianness формата : Big
Идентификатор кодека : A_AC3
Продолжительность : 1 ч. 34 м.
Вид битрейта : Постоянный
Битрейт : 192 Кбит/сек
Каналы : 2 канала
Расположение каналов : Front: L R
Частота : 48,0 КГц
Битовая глубина : 16 бит
Метод сжатия : С потерями
Размер потока : 130 Мбайт (0%)
Заголовок : Русский АСЗ 192 kbps - АП (А.Гаврилов)
Язык : Russian
Default : Нет
Forced : Нет

Аудио #8
Идентификатор : 9
Формат : AC-3
Формат/Информация : Audio Coding 3
Расширение режима : CM (complete main)
Параметр Endianness формата : Big
Идентификатор кодека : A_AC3
Продолжительность : 1 ч. 34 м.
Вид битрейта : Постоянный
Битрейт : 192 Кбит/сек
Каналы : 2 канала
Расположение каналов : Front: L R
Частота : 48,0 КГц
Битовая глубина : 16 бит
Метод сжатия : С потерями
Размер потока : 130 Мбайт (0%)
Заголовок : Русский АСЗ 192 kbps - АП ( А.Кашкин)
Язык : Russian
Default : Нет
Forced : Нет

Аудио #9
Идентификатор : 10
Формат : AC-3
Формат/Информация : Audio Coding 3
Расширение режима : CM (complete main)
Параметр Endianness формата : Big
Идентификатор кодека : A_AC3
Продолжительность : 1 ч. 34 м.
Вид битрейта : Постоянный
Битрейт : 192 Кбит/сек
Каналы : 2 канала
Расположение каналов : Front: L R
Частота : 48,0 КГц
Битовая глубина : 16 бит
Метод сжатия : С потерями
Размер потока : 130 Мбайт (0%)
Заголовок : Русский АСЗ 192 kbps - АП (Визгунов)
Язык : Russian
Default : Нет
Forced : Нет

Аудио #10
Идентификатор : 11
Формат : AC-3
Формат/Информация : Audio Coding 3
Расширение режима : CM (complete main)
Параметр Endianness формата : Big
Идентификатор кодека : A_AC3
Продолжительность : 1 ч. 34 м.
Вид битрейта : Постоянный
Битрейт : 192 Кбит/сек
Каналы : 2 канала
Расположение каналов : Front: L R
Частота : 48,0 КГц
Битовая глубина : 16 бит
Метод сжатия : С потерями
Размер потока : 130 Мбайт (0%)
Заголовок : Русский АСЗ 192 kbps - АП (Кузнецов)
Язык : Russian
Default : Нет
Forced : Нет

Текст #1
Идентификатор : 12
Формат : UTF-8
Идентификатор кодека : S_TEXT/UTF8
Идентификатор кодека/Информация : UTF-8 Plain Text
Заголовок : Русские
Язык : Russian
Default : Нет
Forced : Нет

Текст #2
Идентификатор : 13
Формат : UTF-8
Идентификатор кодека : S_TEXT/UTF8
Идентификатор кодека/Информация : UTF-8 Plain Text
Заголовок : Английские
Язык : English
Default : Нет
Forced : Нет

Меню
00:00:00.000 : :Chapter 01
00:03:02.307 : :Chapter 02
00:07:03.923 : :Chapter 03
00:14:49.888 : :Chapter 04
00:20:49.665 : :Chapter 05
00:27:52.504 : :Chapter 06
00:35:59.282 : :Chapter 07
00:40:10.074 : :Chapter 08
00:46:52.184 : :Chapter 09
00:52:59.384 : :Chapter 10
00:59:32.569 : :Chapter 11
01:09:12.857 : :Chapter 12
01:14:04.273 : :Chapter 13
01:21:10.740 : :Chapter 14
01:25:49.644 : :Chapter 15
01:29:48.299 : :Chapter 16
01:34:34.085 : :Chapter 17


_________________
Проголосуй за трекер Открытый торрент трекер - RUS-MEDIA.ORG

Проголосуй Открытый торрент трекер - RUS-MEDIA.ORG



реклама партнёра


Вернуться к началу
 Профиль Отправить личное сообщение  
 
   Похожие торренты   Автор   Торрент   Размер 
В этой теме нет новых непрочитанных сообщений. В поисках приключений / The Quest [боевик, приключения, 1996] BDRip, Mvo

salma3

23 | 2

1.45 ГБ

В этой теме нет новых непрочитанных сообщений. В поисках приключений / The Quest [боевик, приключения, 1996] BDRip 720, 2Mvo+Dvo+Sub

salma3

19 | 4

3 ГБ

В этой теме нет новых непрочитанных сообщений. В поисках галактики / Galaxy Quest [фантастика, комедия, приключения, 1999] BDRip-HEVC 1080p, Mvo

salma3

248 | 98

6.43 ГБ

В этой теме нет новых непрочитанных сообщений. В поисках галактики / Galaxy Quest [фантастика, боевик, комедия, приключения, 1999] HDRip, Mvo

salma3

12 | 2

1.45 ГБ

В этой теме нет новых непрочитанных сообщений. Король приключений / Adventure King [Боевик, приключения, 1996] DVDRip, Mvo

salma3

45 | 4

746.59 МБ

В этой теме нет новых непрочитанных сообщений. Терминатор: Генезис/ Terminator: Genisys (Алан Тейлор) [2015, Фантастика, боевик, триллер, приключения , BD-Remux 1080p] [DD5.1] [Dub Rus, Eng]+[Sub Rus, Eng]

Враг Нароода

20 | 8

22.96 ГБ

В этой теме нет новых непрочитанных сообщений. Мстители: Эра Альтрона / Avengers: Age of Ultron (Джосс Уидон) [2015, Фантастика, боевик, триллер, приключения, BD-Remux 1080p] [DD5.1] [Dub Rus, Ukr]+[Eng]+[Sub Rus, Eng]

Враг Нароода

2 | 0

25.55 ГБ


Начать новую тему Ответить на тему  [ 1 сообщение ] 




Для Мосгорсуда, Роскомнадзора и рекламодателей:: mosgorsud-torrent[собачка]yandex.ru