Торрент файл
скачать торрент магнет ссылка Добавлен: 15 авг 2017, 13:45
Размер: 68.29 ГБ
Сидеров: 0
Личеров: 0
Автор

СообщениеДобавлено: 15 авг 2017, 13:46 

Не в сети
Аватара пользователя
Дата регистрации:
09 авг 2014, 12:07
Спасибо: 63 / 1
Сообщения: 230
Откуда: КРАСНОГОРСК
Стражи Галактики. Часть 1-2 / Guardians of the Galaxy. Vol. 1-2



Год выпуска: 2017
Выпущено: США, Marvel Enterprises, Marvel Studios, Moving Picture Company
Жанр: Фантастика, боевик, приключения, комедия
Продолжительность: 1: - 02:00:51 2 : - 02:15:46


Озвучка 1: 1: - Дублированный - -Лицензия , 2: - Дублированный - - iiTunes-Русский

Озвучка 2: 1: - Дублированный - -Лицензия -Ukrainian

Озвучка 3: Профессиональный многоголосый -Английский -Оригинал

Субтитры: Russian (Forced, Russian , English, English (SDH)



MDB

Режиссер:
Джеймс Ганн

В ролях: Крис Прэтт, Зои Салдана, Дэйв Батиста, Брэдли Купер, Вин Дизель, Ли Пейс, Майкл Рукер, Карен Гиллан, Гленн Клоуз, Джимон Хонсу, Джон С. Райлли, Бенисио Дель Торо, Лора Хэддок, Шон Ганн, Питер Серафинович, Кристофер Фэйрбэнк, Кристиан Годлевски, Уайатт Олефф, Грегг Генри, Дженис Ахерн


Стражи Галактики. Часть 1
Питер Квилл становится жертвой охотников за головами после кражи таинственной сферы, за которой охотился Ронан- могущественный злодей, полный амбиций и угрожающий целой вселенной. Чтобы одолеть Ронана, Питеру приходится объединиться с квартетом отбросов: вооружённым до зубов Ракетным енотом, древоподобным гуманоидом Грутом, смертельно опасной и загадочной Гаморой и мстительным Драксом Разрушителем. Но когда Питер обнаруживает истинную силу сферы и узнаёт насколько она опасна для космоса, он должен сделать всё возможное, чтобы сплотить всех членов команды для последнего противостояния и вернуть баланс во всей Галактике.
Стражи Галактики. Часть 2
Группа безродных космополитов, обуянных жаждой неприкрытого чистогана и долгами совести, продолжает исподтишка спасать Галактику. Совершив множество глупых подвигов и набив мешки из-под картошки чужими золотыми зубами и брильянтами, они вынуждены принять новый вызов судьбы под давлением обстоятельств непреодолимой силы. Земной авантюрист Питер Квилл, хорошая девушка Гамора, славянский шкаф по имени Дракс, жертва бесчеловечных экспериментов над енотами в области стоматологии и умилительный малыш Грут стоят перед разрешением величайшей загадки природы. Пришло время узнать - кто же настоящий отец Питера Квилла?



Качество :BD-Remux 1080p
Формат: MKV
Видео кодек: H264
Видео: 29,9-27,4Мбит/сек,1920х1080(16.9), в 23.976кадр/сек,AVC (High@L4.1)(CABAC/4 Ref Frames)
Аудио Кодек:AC3
Аудио Кодек:DTS

Аудио #1:AC3 , 384 Kbps, 48.0 KHz, 6 ch- -1: - Дублированный - -Лицензия , 2: - Дублированный - - iiTunes-Русский

Аудио #2:DTS, 3968 Kbps, 48.0 KHz,6 ch - -1: - Дублированный - -Лицензия , 2: - Дублированный - - iiTunes-Русский

Аудио #3:AC3 , 384 Kbps, 48.0 KHz, 6 ch- -1: - Дублированный - -Лицензия -Ukrainian

Аудио #4: AC3, 384 Kbps, 48.0 KHz,6 ch - - English-Английский -Оригинал

Аудио #5: DTS, 3968 Kbps, 48.0 KHz,6 ch - - English-Английский -Оригинал

Аудио #6:AC3, 384 Kbps, 48.0 KHz,6 ch - - English-Английский - Descriptive-Оригинал



Общее
Уникальный идентификатор : 188075865549222368886537353424465838993 (0x8D7E1818C216A24395D6472C70384391)
Полное имя : E:\ПИРАТИЯ(PIRATIYA)\СТРАЖИ ГАЛАКТИКИ.Часть 1-2(Guardians of the Galaxy Vol.1- 2)\GUARDIANS_OF_THE_GALAXY_VOL_1-2_Rus[DUB_iTuness]_Eng_DD5.1_N.B_BD-Remux_1080p\GUARDIANS_OF_THE_GALAXY_VOL-1_Rus[DUB_Licensed]_Eng_DD5.1_N.B_BD-Remux_1080p.mkv
Формат : Matroska
Версия формата : Version 4 / Version 2
Размер файла : 33,3 Гбайт
Продолжительность : 2 ч. 1 м.
Режим общего битрейта : Переменный
Общий поток : 39,4 Мбит/сек
Название фильма : GUARDIANS OF THE GALAXY VOL-1@ Nikolai.Baranov & PIRATIYA
Дата кодирования : UTC 2017-08-13 12:52:26
Программа кодирования : mkvmerge v14.0.0 ('Flow') 64bit
Библиотека кодирования : libebml v1.3.4 + libmatroska v1.4.5

Видео
Идентификатор : 1
Формат : AVC
Формат/Информация : Advanced Video Codec
Профиль формата : High@L4.1
Параметр CABAC формата : Да
Параметр RefFrames формата : 4 кадра
Параметр GOP формата : M=3, N=12
Идентификатор кодека : V_MPEG4/ISO/AVC
Продолжительность : 2 ч. 0 м.
Вид битрейта : Переменный
Битрейт : 29,9 Мбит/сек
Максимальный битрейт : 31,0 Мбит/сек
Ширина : 1920 пикселей
Высота : 1080 пикселей
Соотношение сторон : 16:9
Режим частоты кадров : Постоянный
Частота кадров : 23,976 (24000/1001) кадра/сек
Цветовое пространство : YUV
Субдискретизация насыщенности : 4:2:0
Битовая глубина : 8 бит
Тип развёртки : Прогрессивная
Бит/(Пиксели*Кадры) : 0.602
Размер потока : 25,3 Гбайт (76%)
Заголовок : GUARDIANS_OF_THE_GALAXY_VOL-1_Rus[DUB_Licensed]_Eng_DD5.1_N.B_BD-Remux_1080p
Язык : Russian
Default : Да
Forced : Нет

Аудио #1
Идентификатор : 6
Формат : AC-3
Формат/Информация : Audio Coding 3
Параметр Endianness формата : Big
Идентификатор кодека : A_AC3
Продолжительность : 2 ч. 0 м.
Вид битрейта : Постоянный
Битрейт : 384 Кбит/сек
Каналы : 6 каналов
Расположение каналов : Front: L C R, Side: L R, LFE
Частота : 48,0 КГц
Частота кадров : 31,250 кадров/сек (1536 SPF)
Битовая глубина : 16 бит
Метод сжатия : С потерями
Размер потока : 332 Мбайт (1%)
Заголовок : Rus DUB Licensed @DD5.1 AC3 ,384 Kbps, 48.0 KHz, 6 ch
Язык : Russian
ServiceKind/String : Complete Main
Default : Да
Forced : Нет

Аудио #2
Идентификатор : 7
Формат : DTS
Формат/Информация : Digital Theater Systems
Режим : 16
Параметр Endianness формата : Big
Идентификатор кодека : A_DTS
Продолжительность : 2 ч. 0 м.
Вид битрейта : Постоянный
Битрейт : 3968 Кбит/сек
Каналы : 6 каналов
Расположение каналов : Front: L C R, Side: L R, LFE
Частота : 48,0 КГц
Частота кадров : 46,875 кадров/сек (1024 SPF)
Битовая глубина : 16 бит
Метод сжатия : С потерями
Размер потока : 3,35 Гбайт (10%)
Заголовок : Rus DUB Licensed @DTS,3968 Kbps, 48.0 KHz, 6 ch
Язык : Russian
Default : Нет
Forced : Нет

Аудио #3
Идентификатор : 8
Формат : AC-3
Формат/Информация : Audio Coding 3
Параметр Endianness формата : Big
Идентификатор кодека : A_AC3
Продолжительность : 2 ч. 1 м.
Вид битрейта : Постоянный
Битрейт : 384 Кбит/сек
Каналы : 6 каналов
Расположение каналов : Front: L C R, Side: L R, LFE
Частота : 48,0 КГц
Частота кадров : 31,250 кадров/сек (1536 SPF)
Битовая глубина : 16 бит
Метод сжатия : С потерями
Размер потока : 333 Мбайт (1%)
Заголовок : Ukr DUB Licensed @DD5.1 AC3 ,384 Kbps, 48.0 KHz, 6 ch
Язык : Ukrainian
ServiceKind/String : Complete Main
Default : Нет
Forced : Нет

Аудио #4
Идентификатор : 9
Формат : AC-3
Формат/Информация : Audio Coding 3
Параметр Endianness формата : Big
Идентификатор кодека : A_AC3
Продолжительность : 2 ч. 0 м.
Вид битрейта : Постоянный
Битрейт : 384 Кбит/сек
Каналы : 6 каналов
Расположение каналов : Front: L C R, Side: L R, LFE
Частота : 48,0 КГц
Частота кадров : 31,250 кадров/сек (1536 SPF)
Битовая глубина : 16 бит
Метод сжатия : С потерями
Размер потока : 332 Мбайт (1%)
Заголовок : Original@DD5.1 AC3 , 384 Kbps, 48.0 KHz, 6 ch
Язык : English
ServiceKind/String : Complete Main
Default : Нет
Forced : Нет

Аудио #5
Идентификатор : 10
Формат : AC-3
Формат/Информация : Audio Coding 3
Параметр Endianness формата : Big
Идентификатор кодека : A_AC3
Продолжительность : 2 ч. 0 м.
Вид битрейта : Постоянный
Битрейт : 384 Кбит/сек
Каналы : 6 каналов
Расположение каналов : Front: L C R, Side: L R, LFE
Частота : 48,0 КГц
Частота кадров : 31,250 кадров/сек (1536 SPF)
Битовая глубина : 16 бит
Метод сжатия : С потерями
Размер потока : 332 Мбайт (1%)
Заголовок : Descriptive Original@DD5.1 AC3 , 384 Kbps, 48.0 KHz, 6 ch
Язык : English
ServiceKind/String : Complete Main
Default : Нет
Forced : Нет

Аудио #6
Идентификатор : 11
Формат : DTS
Формат/Информация : Digital Theater Systems
Режим : 16
Параметр Endianness формата : Big
Идентификатор кодека : A_DTS
Продолжительность : 2 ч. 0 м.
Вид битрейта : Постоянный
Битрейт : 3968 Кбит/сек
Каналы : 6 каналов
Расположение каналов : Front: L C R, Side: L R, LFE
Частота : 48,0 КГц
Частота кадров : 46,875 кадров/сек (1024 SPF)
Битовая глубина : 16 бит
Метод сжатия : С потерями
Размер потока : 3,35 Гбайт (10%)
Заголовок : Original @DTS,3968 Kbps, 48.0 KHz, 6 ch
Язык : English
Default : Нет
Forced : Нет

Текст #1
Идентификатор : 2
Формат : PGS
Режим смешивания : zlib
Идентификатор кодека : S_HDMV/PGS
Идентификатор кодека/Информация : Picture based subtitle format used on BDs/HD-DVDs
Продолжительность : 2 ч. 0 м.
Битрейт : 48,8 Кбит/сек
ElementCount : 2828
Размер потока : 42,0 Мбайт (0%)
Заголовок : Rus
Язык : Russian
Default : Да
Forced : Нет

Текст #2
Идентификатор : 3
Формат : UTF-8
Идентификатор кодека : S_TEXT/UTF8
Идентификатор кодека/Информация : UTF-8 Plain Text
Продолжительность : 2 ч. 0 м.
Битрейт : 92 бит/сек
ElementCount : 1489
Размер потока : 81,3 Кбайт (0%)
Заголовок : Rus
Язык : Russian
Default : Нет
Forced : Нет

Текст #3
Идентификатор : 4
Формат : UTF-8
Идентификатор кодека : S_TEXT/UTF8
Идентификатор кодека/Информация : UTF-8 Plain Text
Продолжительность : 2 ч. 0 м.
Битрейт : 47 бит/сек
ElementCount : 1417
Размер потока : 41,8 Кбайт (0%)
Заголовок : Original
Язык : English
Default : Нет
Forced : Нет

Текст #4
Идентификатор : 5
Формат : UTF-8
Идентификатор кодека : S_TEXT/UTF8
Идентификатор кодека/Информация : UTF-8 Plain Text
Продолжительность : 2 ч. 0 м.
Битрейт : 52 бит/сек
ElementCount : 1668
Размер потока : 46,8 Кбайт (0%)
Заголовок : SDH
Язык : English
Default : Нет
Forced : Нет

Текст #5
Идентификатор : 12
Формат : PGS
Режим смешивания : zlib
Идентификатор кодека : S_HDMV/PGS
Идентификатор кодека/Информация : Picture based subtitle format used on BDs/HD-DVDs
Продолжительность : 2 ч. 0 м.
Битрейт : 35,0 Кбит/сек
ElementCount : 3334
Размер потока : 30,2 Мбайт (0%)
Заголовок : SDH
Язык : English
Default : Нет
Forced : Нет

Меню
00:00:00.000 : en:Глава 01 / en:Глава 01 / en:Глава 01 / en:Глава 01 / en:Глава 01 / en:Глава 01 / en:Глава 01 / en:Глава 01 / en:Глава 01 / en:Глава 01 / en:Глава 01 / en:Глава 01




Общее
Уникальный идентификатор : 218468147372601908027947252918693765502 (0xA45B6F47F911F84AB3AAE211E33DA17E)
Полное имя : E:\ПИРАТИЯ(PIRATIYA)\СТРАЖИ ГАЛАКТИКИ.Часть 1-2(Guardians of the Galaxy Vol.1- 2)\GUARDIANS_OF_THE_GALAXY_VOL_1-2_Rus[DUB_iTuness]_Eng_DD5.1_N.B_BD-Remux_1080p\GUARDIANS_OF_THE_GALAXY_VOL-2_Rus[DUB_iTuness]_Eng_DD5.1_N.B_BD-Remux_1080p.mkv
Формат : Matroska
Версия формата : Version 4 / Version 2
Размер файла : 34,6 Гбайт
Продолжительность : 2 ч. 15 м.
Режим общего битрейта : Переменный
Общий поток : 36,5 Мбит/сек
Название фильма : GUARDIANS OF THE GALAXY VOL-2 @ Nikolai.Baranov & PIRATIYA
Дата кодирования : UTC 2017-08-14 14:27:37
Программа кодирования : mkvmerge v14.0.0 ('Flow') 64bit
Библиотека кодирования : libebml v1.3.4 + libmatroska v1.4.5

Видео
Идентификатор : 1
Формат : AVC
Формат/Информация : Advanced Video Codec
Профиль формата : High@L4.1
Параметр CABAC формата : Да
Параметр RefFrames формата : 4 кадра
Идентификатор кодека : V_MPEG4/ISO/AVC
Продолжительность : 2 ч. 15 м.
Вид битрейта : Переменный
Битрейт : 27,4 Мбит/сек
Максимальный битрейт : 34,0 Мбит/сек
Ширина : 1920 пикселей
Высота : 1080 пикселей
Соотношение сторон : 16:9
Режим частоты кадров : Постоянный
Частота кадров : 23,976 (24000/1001) кадра/сек
Цветовое пространство : YUV
Субдискретизация насыщенности : 4:2:0
Битовая глубина : 8 бит
Тип развёртки : Прогрессивная
Бит/(Пиксели*Кадры) : 0.551
Размер потока : 26,0 Гбайт (75%)
Заголовок : GUARDIANS_OF_THE_GALAXY_VOL-2_Rus[DUB_iTuness]_Eng_DD5.1_N.B_BD-Remux_1080p
Язык : Russian
Default : Да
Forced : Нет

Аудио #1
Идентификатор : 8
Формат : AC-3
Формат/Информация : Audio Coding 3
Параметр Endianness формата : Big
Идентификатор кодека : A_AC3
Продолжительность : 2 ч. 15 м.
Вид битрейта : Постоянный
Битрейт : 384 Кбит/сек
Каналы : 6 каналов
Расположение каналов : Front: L C R, Side: L R, LFE
Частота : 48,0 КГц
Частота кадров : 31,250 кадров/сек (1536 SPF)
Битовая глубина : 16 бит
Метод сжатия : С потерями
Размер потока : 373 Мбайт (1%)
Заголовок : Rus DUB iTuness @DD5.1 AC3 ,384 Kbps, 48.0 KHz, 6 ch
Язык : Russian
ServiceKind/String : Complete Main
Default : Да
Forced : Нет

Аудио #2
Идентификатор : 9
Формат : DTS
Формат/Информация : Digital Theater Systems
Режим : 16
Параметр Endianness формата : Big
Идентификатор кодека : A_DTS
Продолжительность : 2 ч. 15 м.
Вид битрейта : Постоянный
Битрейт : 3968 Кбит/сек
Каналы : 6 каналов
Расположение каналов : Front: L C R, Side: L R, LFE
Частота : 48,0 КГц
Частота кадров : 46,875 кадров/сек (1024 SPF)
Битовая глубина : 16 бит
Метод сжатия : С потерями
Размер потока : 3,76 Гбайт (11%)
Заголовок : Rus DUB iTuness @DTS,3968 Kbps, 48.0 KHz, 6 ch
Язык : Russian
Default : Нет
Forced : Нет

Аудио #3
Идентификатор : 10
Формат : AC-3
Формат/Информация : Audio Coding 3
Параметр Endianness формата : Big
Идентификатор кодека : A_AC3
Продолжительность : 2 ч. 15 м.
Вид битрейта : Постоянный
Битрейт : 384 Кбит/сек
Каналы : 6 каналов
Расположение каналов : Front: L C R, Side: L R, LFE
Частота : 48,0 КГц
Частота кадров : 31,250 кадров/сек (1536 SPF)
Битовая глубина : 16 бит
Метод сжатия : С потерями
Размер потока : 373 Мбайт (1%)
Заголовок : Original@DD5.1 AC3 , 384 Kbps, 48.0 KHz, 6 ch
Язык : English
ServiceKind/String : Complete Main
Default : Нет
Forced : Нет

Аудио #4
Идентификатор : 11
Формат : DTS
Формат/Информация : Digital Theater Systems
Режим : 16
Параметр Endianness формата : Big
Идентификатор кодека : A_DTS
Продолжительность : 2 ч. 15 м.
Вид битрейта : Постоянный
Битрейт : 3968 Кбит/сек
Каналы : 6 каналов
Расположение каналов : Front: L C R, Side: L R, LFE
Частота : 48,0 КГц
Частота кадров : 46,875 кадров/сек (1024 SPF)
Битовая глубина : 16 бит
Метод сжатия : С потерями
Размер потока : 3,76 Гбайт (11%)
Заголовок : Original @DTS,3968 Kbps, 48.0 KHz, 6 ch
Язык : English
Default : Нет
Forced : Нет

Аудио #5
Идентификатор : 12
Формат : AC-3
Формат/Информация : Audio Coding 3
Параметр Endianness формата : Big
Идентификатор кодека : A_AC3
Продолжительность : 2 ч. 15 м.
Вид битрейта : Постоянный
Битрейт : 384 Кбит/сек
Каналы : 6 каналов
Расположение каналов : Front: L C R, Side: L R, LFE
Частота : 48,0 КГц
Частота кадров : 31,250 кадров/сек (1536 SPF)
Битовая глубина : 16 бит
Метод сжатия : С потерями
Размер потока : 373 Мбайт (1%)
Заголовок : Descriptive Original@DD5.1 AC3 , 384 Kbps, 48.0 KHz, 6 ch
Язык : English
ServiceKind/String : Complete Main
Default : Нет
Forced : Нет

Текст #1
Идентификатор : 2
Формат : PGS
Режим смешивания : zlib
Идентификатор кодека : S_HDMV/PGS
Идентификатор кодека/Информация : Picture based subtitle format used on BDs/HD-DVDs
Продолжительность : 2 ч. 6 м.
Битрейт : 343 бит/сек
ElementCount : 22
Размер потока : 319 Кбайт (0%)
Заголовок : Rus - Forced
Язык : Russian
Default : Да
Forced : Нет

Текст #2
Идентификатор : 3
Формат : PGS
Режим смешивания : zlib
Идентификатор кодека : S_HDMV/PGS
Идентификатор кодека/Информация : Picture based subtitle format used on BDs/HD-DVDs
Продолжительность : 2 ч. 14 м.
Битрейт : 42,1 Кбит/сек
ElementCount : 3092
Размер потока : 40,6 Мбайт (0%)
Заголовок : Rus
Язык : Russian
Default : Нет
Forced : Нет

Текст #3
Идентификатор : 4
Формат : UTF-8
Идентификатор кодека : S_TEXT/UTF8
Идентификатор кодека/Информация : UTF-8 Plain Text
Продолжительность : 2 ч. 14 м.
Битрейт : 74 бит/сек
ElementCount : 1546
Размер потока : 73,8 Кбайт (0%)
Заголовок : Rus
Язык : Russian
Default : Нет
Forced : Нет

Текст #4
Идентификатор : 5
Формат : UTF-8
Идентификатор кодека : S_TEXT/UTF8
Идентификатор кодека/Информация : UTF-8 Plain Text
Продолжительность : 2 ч. 14 м.
Битрейт : 48 бит/сек
ElementCount : 1624
Размер потока : 47,5 Кбайт (0%)
Заголовок : Original
Язык : English
Default : Нет
Forced : Нет

Текст #5
Идентификатор : 6
Формат : UTF-8
Идентификатор кодека : S_TEXT/UTF8
Идентификатор кодека/Информация : UTF-8 Plain Text
Продолжительность : 2 ч. 15 м.
Битрейт : 74 бит/сек
ElementCount : 1966
Размер потока : 74,4 Кбайт (0%)
Заголовок : SDH
Язык : English
Default : Нет
Forced : Нет

Текст #6
Идентификатор : 7
Формат : PGS
Режим смешивания : zlib
Идентификатор кодека : S_HDMV/PGS
Идентификатор кодека/Информация : Picture based subtitle format used on BDs/HD-DVDs
Продолжительность : 2 ч. 14 м.
Битрейт : 36,4 Кбит/сек
ElementCount : 3946
Размер потока : 35,1 Мбайт (0%)
Заголовок : SDH
Язык : English
Default : Нет
Forced : Нет

Меню
00:00:00.000 : en:Глава 01 / en:Глава 01 / en:Глава 01 / en:Глава 01 / en:Глава 01 / en:Глава 01 / en:Глава 01 / en:Глава 01 / en:Глава 01 / en:Глава 01 / en:Глава 01 / en:Глава 01








Стражи Галактики. Часть 1

Стражи Галактики. Часть 2





Релиз от: Nikolai.Baranov & PIRATIYA







_________________

Легко быть оптимистом, когда судьба не валит с ног тяжелыми ударами, а лишь иногда легонько шлепает по заднице.


Вернуться к началу
 Профиль Отправить личное сообщение  
 
   Похожие торренты   Автор   Торрент   Размер 
В этой теме нет новых непрочитанных сообщений. Стражи Галактики (Часть 2) / Guardians of the Galaxy. Vol. 2 [Фантастика, боевик, приключения, 2017] Blu-Ray Remux 1080p, Dub [2D,3D-Video] [iTunes] [IMAX Edition]

salma3

22 | 117

37.39 ГБ

В этой теме нет новых непрочитанных сообщений. Стражи Галактики. Часть 2 / Guardians of the Galaxy Vol. 2 [фантастика, боевик, приключения, 2017] HDRip-AVC, Dub [iTunes]

salma3

812 | 226

2.19 ГБ

В этой теме нет новых непрочитанных сообщений. Стражи Галактики. Часть 2 3D / Guardians of the Galaxy. Vol. 2 3D [фантастика, боевик, приключения, комедия, 2017] Blu-Ray EUR 1080p, Dub [3D-Video] [IMAX] [Лицензия]

salma3

40 | 24

38.73 ГБ

В этой теме нет новых непрочитанных сообщений. Стражи Галактики. Часть 2 / Guardians of the Galaxy Vol. 2 [Фантастика, боевик, приключения, 2017] Blu-Ray EUR 1080p, Dub [Лицензия]

salma3

73 | 81

42.67 ГБ

В этой теме нет новых непрочитанных сообщений. Стражи Галактики. Часть 2 / Guardians of the Galaxy Vol. 2 [Фантастика, боевик, приключения, 2017] BDRemux 1080p, Dub

salma3

0 | 0

40.4 ГБ

В этой теме нет новых непрочитанных сообщений. Стражи Галактики. Часть 2 / Guardians of the Galaxy Vol. 2 [Фантастика, боевик, приключения, 2017] BDRip 1080p, Dub [Лицензия]

salma3

7 | 12

13.42 ГБ

В этой теме нет новых непрочитанных сообщений. Стражи Галактики. Часть 2 / Guardians of the Galaxy Vol. 2 [Фантастика, боевик, приключения, 2017] BDRip, Dub [Лицензия]

salma3

138 | 230

2.19 ГБ


Начать новую тему Ответить на тему  [ 1 сообщение ] 




Для Мосгорсуда, Роскомнадзора и рекламодателей:: mosgorsud-torrent[собачка]yandex.ru
cron