Торрент файл
скачать торрент магнет ссылка Добавлен: 10 авг 2017, 09:48
Размер: 12.38 ГБ
Сидеров: 65
Личеров: 24
Статус: (salma3)
Автор

СообщениеДобавлено: 10 авг 2017, 09:48 

Не в сети
Супермодератор
Аватара пользователя
Дата регистрации:
15 фев 2012, 16:44
Возраст: 28
Спасибо: 7061 / 2147
Сообщения: 59169
Год выпуска: 1987
Жанр: фантастика, боевик, триллер
Режиссер: Джон МакТирнан / John McTiernan

В ролях: Арнольд Шварценеггер, Карл Уэзерс, Эльпидия Каррильо, Билл Дьюк, Джесси Вентура, Сонни Лэндэм, Ричард Чавес, Р.Г. Армстронг, Шейн Блэк, Кевин Питер Холл

Описание: Американский вертолет был сбит партизанами в Южной Америке. Оставшийся в живых экипаж находится в плену. Центральное разведывательное управление США бросает свои лучшие силы для освобождения американских граждан.



Страна: США
Продолжительность: 01:46:35
Перевод: Профессиональный (полное дублирование), 3 x Профессиональный (многоголосый, закадровый), 2 x Профессиональный (двухголосый, закадровый), 6 x Авторский
Субтитры: русские, английские

Качество: BDRip 1080p
Контейнер: MKV
Видео: AVC, 1920x1040 (1.85:1), 10999 kbps, 23,976 fps, 0,230 bpp
Аудио №01: русский / AC3 / 5.1 / 48 kHz / 640 kbps / Дубляж
Аудио №02: русский / AC3 / 5.1 / 48 kHz / 640 kbps / MVO ( Киномания )
Аудио №03: русский / AC3 / 2.0 / 48 kHz / 192 kbps / MVO ( OPT )
Аудио №04: русский / AC3 / 5.1 / 48 kHz / 384 kbps / MVO ( Гемини (R5) )
Аудио №05: русский / AC3 / 5.1 / 48 kHz / 640 kbps / DVO ( П. Гланц и И. Королева )
Аудио №06: русский / AC3 / 2.0 / 48 kHz / 256 kbps / DVO ( НТВ )
Аудио №07: русский / AC3 / 5.1 / 48 kHz / 640 kbps / AVO ( Гаврилов )
Аудио №08: русский / AC3 / 5.1 / 48 kHz / 640 kbps / AVO ( Дмитрий «Гоблин» Пучков )
Аудио №09: русский / AC3 / 2.0 / 48 kHz / 256 kbps / AVO ( Живов )
Аудио №10: русский / AC3 / 2.0 / 48 kHz / 256 kbps / AVO ( Горчаков )
Аудио №11: русский / AC3 / 2.0 / 48 kHz / 256 kbps / AVO ( Либергал )
Аудио №12: русский / AC3 / 2.0 / 48 kHz / 192 kbps / AVO ( Федоров )
Аудио №13: английский / AC3 / 5.1 / 48 kHz / 640 kbps
Навигация по главам: есть

Семпл

**************************************************************
x264 [info]: frame I:988 Avg QP:14.21
x264 [info]: frame P:45240 Avg QP:16.58
x264 [info]: frame B:107116 Avg QP:17.95
**************************************************************
Формат : Matroska
Версия формата : Version 2
Размер файла : 12,4 Гбайт
Продолжительность : 1 ч. 46 м.
Общий поток : 16,6 Мбит/сек
Название фильма : = Хищник / Predator (1987) BDRip 1080p - KORSAR =
Дата кодирования : UTC 2017-08-04 13:33:32
Программа кодирования : mkvmerge v5.8.0 ('No Sleep / Pillow') built on Sep 2 2012 15:37:04
Библиотека кодирования : libebml v1.2.3 + libmatroska v1.3.0
Attachment : Yes

Видео
Идентификатор : 1
Формат : AVC
Формат/Информация : Advanced Video Codec
Профиль формата : High@L4.1
Параметр CABAC формата : Да
Параметр ReFrames формата : 4 кадра
Идентификатор кодека : V_MPEG4/ISO/AVC
Продолжительность : 1 ч. 46 м.
Битрейт : 11,0 Мбит/сек
Ширина : 1920 пикселей
Высота : 1040 пикселей
Соотношение сторон : 1,85:1
Режим частоты кадров : Постоянный
Частота кадров : 23,976 кадра/сек
Цветовое пространство : YUV
Субдискретизация насыщенности : 4:2:0
Битовая глубина : 8 бит
Тип развёртки : Прогрессивная
Бит/(Пиксели*Кадры) : 0.230
Размер потока : 7,94 Гбайт (64%)
Заголовок : Хищник / Predator (1987) BDRip 1080p - KORSAR
Библиотека кодирования : x264 core 152 r2851 ba24899
Настройки программы : cabac=1 / ref=4 / deblock=1:-3:-3 / analyse=0x3:0x113 / me=umh / subme=11 / psy=1 / psy_rd=1.00:0.00 / mixed_ref=1 / me_range=32 / chroma_me=1 / trellis=2 / 8x8dct=1 / cqm=0 / deadzone=21,11 / fast_pskip=0 / chroma_qp_offset=-2 / threads=12 / lookahead_threads=3 / sliced_threads=0 / nr=0 / decimate=0 / interlaced=0 / bluray_compat=0 / constrained_intra=0 / bframes=10 / b_pyramid=2 / b_adapt=2 / b_bias=0 / direct=3 / weightb=1 / open_gop=0 / weightp=2 / keyint=240 / keyint_min=23 / scenecut=40 / intra_refresh=0 / rc_lookahead=50 / rc=2pass / mbtree=0 / bitrate=10999 / ratetol=1.0 / qcomp=0.60 / qpmin=0 / qpmax=69 / qpstep=4 / cplxblur=20.0 / qblur=0.5 / vbv_maxrate=50000 / vbv_bufsize=50000 / nal_hrd=none / filler=0 / ip_ratio=1.40 / pb_ratio=1.30 / aq=2:0.70
Язык : English
Default : Да
Forced : Нет
Основные цвета : BT.709
Характеристики трансфера : BT.709
Коэффициенты матрицы : BT.709

Аудио #1
Идентификатор : 2
Формат : AC-3
Формат/Информация : Audio Coding 3
Расширение режима : CM (complete main)
Параметр Endianness формата : Big
Идентификатор кодека : A_AC3
Продолжительность : 1 ч. 46 м.
Вид битрейта : Постоянный
Битрейт : 640 Кбит/сек
Каналы : 6 каналов
Расположение каналов : Front: L C R, Side: L R, LFE
Частота : 48,0 КГц
Битовая глубина : 16 бит
Метод сжатия : С потерями
Размер потока : 488 Мбайт (4%)
Заголовок : Дубляж
Язык : Russian
Default : Да
Forced : Нет

Аудио #2
Идентификатор : 3
Формат : AC-3
Формат/Информация : Audio Coding 3
Расширение режима : CM (complete main)
Параметр Endianness формата : Big
Идентификатор кодека : A_AC3
Продолжительность : 1 ч. 46 м.
Вид битрейта : Постоянный
Битрейт : 640 Кбит/сек
Каналы : 6 каналов
Расположение каналов : Front: L C R, Side: L R, LFE
Частота : 48,0 КГц
Битовая глубина : 16 бит
Метод сжатия : С потерями
Размер потока : 488 Мбайт (4%)
Заголовок : MVO ( Киномания )
Язык : Russian
Default : Нет
Forced : Нет

Аудио #3
Идентификатор : 4
Формат : AC-3
Формат/Информация : Audio Coding 3
Расширение режима : CM (complete main)
Параметр Endianness формата : Big
Идентификатор кодека : A_AC3
Продолжительность : 1 ч. 46 м.
Вид битрейта : Постоянный
Битрейт : 192 Кбит/сек
Каналы : 2 канала
Расположение каналов : Front: L R
Частота : 48,0 КГц
Битовая глубина : 16 бит
Метод сжатия : С потерями
Размер потока : 146 Мбайт (1%)
Заголовок : MVO ( OPT )
Язык : Russian
Default : Нет
Forced : Нет

Аудио #4
Идентификатор : 5
Формат : AC-3
Формат/Информация : Audio Coding 3
Расширение режима : CM (complete main)
Параметр Endianness формата : Big
Идентификатор кодека : A_AC3
Продолжительность : 1 ч. 46 м.
Вид битрейта : Постоянный
Битрейт : 384 Кбит/сек
Каналы : 6 каналов
Расположение каналов : Front: L C R, Side: L R, LFE
Частота : 48,0 КГц
Битовая глубина : 16 бит
Метод сжатия : С потерями
Размер потока : 293 Мбайт (2%)
Заголовок : MVO ( Гемини (R5) )
Язык : Russian
Default : Нет
Forced : Нет

Аудио #5
Идентификатор : 6
Формат : AC-3
Формат/Информация : Audio Coding 3
Расширение режима : CM (complete main)
Параметр Endianness формата : Big
Идентификатор кодека : A_AC3
Продолжительность : 1 ч. 46 м.
Вид битрейта : Постоянный
Битрейт : 640 Кбит/сек
Каналы : 6 каналов
Расположение каналов : Front: L C R, Side: L R, LFE
Частота : 48,0 КГц
Битовая глубина : 16 бит
Метод сжатия : С потерями
Размер потока : 488 Мбайт (4%)
Заголовок : DVO ( П. Гланц и И. Королева )
Язык : Russian
Default : Нет
Forced : Нет

Аудио #6
Идентификатор : 7
Формат : AC-3
Формат/Информация : Audio Coding 3
Расширение режима : CM (complete main)
Параметр Endianness формата : Big
Идентификатор кодека : A_AC3
Продолжительность : 1 ч. 46 м.
Вид битрейта : Постоянный
Битрейт : 256 Кбит/сек
Каналы : 2 канала
Расположение каналов : Front: L R
Частота : 48,0 КГц
Битовая глубина : 16 бит
Метод сжатия : С потерями
Размер потока : 195 Мбайт (2%)
Заголовок : DVO ( НТВ )
Язык : Russian
Default : Нет
Forced : Нет

Аудио #7
Идентификатор : 8
Формат : AC-3
Формат/Информация : Audio Coding 3
Расширение режима : CM (complete main)
Параметр Endianness формата : Big
Идентификатор кодека : A_AC3
Продолжительность : 1 ч. 46 м.
Вид битрейта : Постоянный
Битрейт : 640 Кбит/сек
Каналы : 6 каналов
Расположение каналов : Front: L C R, Side: L R, LFE
Частота : 48,0 КГц
Битовая глубина : 16 бит
Метод сжатия : С потерями
Размер потока : 488 Мбайт (4%)
Заголовок : AVO ( Гаврилов )
Язык : Russian
Default : Нет
Forced : Нет

Аудио #8
Идентификатор : 9
Формат : AC-3
Формат/Информация : Audio Coding 3
Расширение режима : CM (complete main)
Параметр Endianness формата : Big
Идентификатор кодека : A_AC3
Продолжительность : 1 ч. 46 м.
Вид битрейта : Постоянный
Битрейт : 640 Кбит/сек
Каналы : 6 каналов
Расположение каналов : Front: L C R, Side: L R, LFE
Частота : 48,0 КГц
Битовая глубина : 16 бит
Метод сжатия : С потерями
Размер потока : 488 Мбайт (4%)
Заголовок : AVO ( Дмитрий «Гоблин» Пучков )
Язык : Russian
Default : Нет
Forced : Нет

Аудио #9
Идентификатор : 10
Формат : AC-3
Формат/Информация : Audio Coding 3
Расширение режима : CM (complete main)
Параметр Endianness формата : Big
Идентификатор кодека : A_AC3
Продолжительность : 1 ч. 46 м.
Вид битрейта : Постоянный
Битрейт : 256 Кбит/сек
Каналы : 2 канала
Расположение каналов : Front: L R
Частота : 48,0 КГц
Битовая глубина : 16 бит
Метод сжатия : С потерями
Размер потока : 195 Мбайт (2%)
Заголовок : AVO ( Живов )
Язык : Russian
Default : Нет
Forced : Нет

Аудио #10
Идентификатор : 11
Формат : AC-3
Формат/Информация : Audio Coding 3
Расширение режима : CM (complete main)
Параметр Endianness формата : Big
Идентификатор кодека : A_AC3
Продолжительность : 1 ч. 46 м.
Вид битрейта : Постоянный
Битрейт : 256 Кбит/сек
Каналы : 2 канала
Расположение каналов : Front: L R
Частота : 48,0 КГц
Битовая глубина : 16 бит
Метод сжатия : С потерями
Размер потока : 195 Мбайт (2%)
Заголовок : AVO ( Горчаков )
Язык : Russian
Default : Нет
Forced : Нет

Аудио #11
Идентификатор : 12
Формат : AC-3
Формат/Информация : Audio Coding 3
Расширение режима : CM (complete main)
Параметр Endianness формата : Big
Идентификатор кодека : A_AC3
Продолжительность : 1 ч. 46 м.
Вид битрейта : Постоянный
Битрейт : 256 Кбит/сек
Каналы : 2 канала
Расположение каналов : Front: L R
Частота : 48,0 КГц
Битовая глубина : 16 бит
Метод сжатия : С потерями
Размер потока : 195 Мбайт (2%)
Заголовок : AVO ( Либергал )
Default : Нет
Forced : Нет

Аудио #12
Идентификатор : 13
Формат : AC-3
Формат/Информация : Audio Coding 3
Расширение режима : CM (complete main)
Параметр Endianness формата : Big
Идентификатор кодека : A_AC3
Продолжительность : 1 ч. 46 м.
Вид битрейта : Постоянный
Битрейт : 192 Кбит/сек
Каналы : 2 канала
Расположение каналов : Front: L R
Частота : 48,0 КГц
Битовая глубина : 16 бит
Метод сжатия : С потерями
Размер потока : 146 Мбайт (1%)
Заголовок : AVO ( Федоров )
Default : Нет
Forced : Нет

Аудио #13
Идентификатор : 14
Формат : AC-3
Формат/Информация : Audio Coding 3
Расширение режима : CM (complete main)
Параметр Endianness формата : Big
Идентификатор кодека : A_AC3
Продолжительность : 1 ч. 46 м.
Вид битрейта : Постоянный
Битрейт : 640 Кбит/сек
Каналы : 6 каналов
Расположение каналов : Front: L C R, Side: L R, LFE
Частота : 48,0 КГц
Битовая глубина : 16 бит
Метод сжатия : С потерями
Размер потока : 488 Мбайт (4%)
Язык : English
Default : Нет
Forced : Нет

Текст #1
Идентификатор : 15
Формат : UTF-8
Идентификатор кодека : S_TEXT/UTF8
Идентификатор кодека/Информация : UTF-8 Plain Text
Язык : Russian
Default : Нет
Forced : Нет

Текст #2
Идентификатор : 16
Формат : UTF-8
Идентификатор кодека : S_TEXT/UTF8
Идентификатор кодека/Информация : UTF-8 Plain Text
Заголовок : неизвестный
Язык : Russian
Default : Нет
Forced : Нет

Текст #3
Идентификатор : 17
Формат : UTF-8
Идентификатор кодека : S_TEXT/UTF8
Идентификатор кодека/Информация : UTF-8 Plain Text
Заголовок : Гоблин
Язык : Russian
Default : Нет
Forced : Нет

Текст #4
Идентификатор : 18
Формат : UTF-8
Идентификатор кодека : S_TEXT/UTF8
Идентификатор кодека/Информация : UTF-8 Plain Text
Язык : English
Default : Нет
Forced : Нет

Меню
00:00:00.000 : en:00:00:00.000
00:04:04.286 : en:00:04:04.286
00:06:29.639 : en:00:06:29.639
00:10:32.465 : en:00:10:32.465
00:18:21.183 : en:00:18:21.183
00:20:21.554 : en:00:20:21.554
00:27:52.337 : en:00:27:52.337
00:31:04.279 : en:00:31:04.279
00:34:53.717 : en:00:34:53.717
00:37:49.601 : en:00:37:49.601
00:41:00.833 : en:00:41:00.833
00:46:33.374 : en:00:46:33.374
00:53:08.685 : en:00:53:08.685
01:01:37.402 : en:01:01:37.402
01:04:08.762 : en:01:04:08.762
01:08:09.919 : en:01:08:09.919
01:14:10.363 : en:01:14:10.363
01:15:50.212 : en:01:15:50.212
01:18:27.369 : en:01:18:27.369
01:20:55.809 : en:01:20:55.809
01:25:09.271 : en:01:25:09.271
01:34:31.833 : en:01:34:31.833
01:35:49.118 : en:01:35:49.118
01:39:58.659 : en:01:39:58.659
01:42:56.170 : en:01:42:56.170



_________________
Проголосуй за трекер Открытый торрент трекер - RUS-MEDIA.ORG

Проголосуй Открытый торрент трекер - RUS-MEDIA.ORG


Вернуться к началу
 Профиль Отправить личное сообщение  
 
   Похожие торренты   Автор   Торрент   Размер 
В этой теме нет новых непрочитанных сообщений. Хищник / Predator [фантастика, боевик, приключения, 1987] BDRip-AVC, Dub+Mvo+Avo+Sub

salma3

103 | 58

2.18 ГБ

В этой теме нет новых непрочитанных сообщений. Хищник / Predator [фантастика, боевик, 1987] WEB-DL 1080p, Dub [Open Matte]

salma3

61 | 21

18.06 ГБ

В этой теме нет новых непрочитанных сообщений. Хищник 2 / Predator 2 [ужасы, фантастика, боевик, триллер, 1990] BDRip 1080p, Dub+Mvo+Dvo+Avo+Sub

salma3

44 | 17

12.42 ГБ

В этой теме нет новых непрочитанных сообщений. Хищник / Predator [фантастика, боевик, 1987] WEB-DLRip-AVC, Dub [Open Matte]

salma3

17 | 0

2.36 ГБ

В этой теме нет новых непрочитанных сообщений. Хищник / Predator [фантастика, боевик, 1987] WEB-DLRip-AVC, Dub [Open Matte]

salma3

7 | 1

3.29 ГБ

В этой теме нет новых непрочитанных сообщений. Чужой против Хищника / AVP: Alien vs. Predator [Ужасы, фантастика, боевик, 2004] BDRip 1080p, Dub [Theatrical Cut]

salma3

0 | 0

12.65 ГБ

В этой теме нет новых непрочитанных сообщений. Чужой против Хищника / AVP: Alien vs. Predator [Ужасы, фантастика, боевик, 2004] BDRip 1080p, Dub [Unrated]

salma3

0 | 1

18.66 ГБ


Начать новую тему Ответить на тему  [ 1 сообщение ] 




Для Мосгорсуда, Роскомнадзора и рекламодателей:: mosgorsud-torrent[собачка]yandex.ru
cron