Торрент файл
скачать торрент магнет ссылка Добавлен: 06 авг 2017, 21:42
Размер: 7.92 ГБ
Сидеров: 30
Личеров: 10
Статус: (salma3)
Автор

СообщениеДобавлено: 06 авг 2017, 21:42 

Не в сети
Супермодератор
Аватара пользователя
Дата регистрации:
15 фев 2012, 16:44
Возраст: 28
Спасибо: 6672 / 2146
Сообщения: 46169
Год выхода: 1992
Жанр: комедия, криминал, детектив
Режиссер: Юджин Леви

В ролях: Ричард Льюис, Шон Янг, Джеймс Белуши, Сибилл Шепард, Джон Кэнди, Орнелла Мути, Джордж Хэмилтон, Джанкарло Джаннини, Роберто Сбаратто, Джосс Экленд

О фильме:
Безработный актер и только что уволенная со службы женщина находят потерявшуюся собачку и за вознаграждение доставляют ее из Рима в Монте-Карло. Но практически на их глазах хозяйку таксы убивают. Испугавшись, они пытаются скрыться и оказываются главными подозреваемыми. Далее шумная криминальная интрига вовлекает в свой стремительный водоворот еще одну американскую пару и азартного игрока.



Страна: Германия, США
Продолжительность: 01:34:39
Перевод: Профессиональный (многоголосый, закадровый) TB3 + Профессиональный (многоголосый, закадровый) HTB + Профессиональный (многоголосый, закадровый) CTC + Профессиональный (многоголосый, закадровый) СВ-Кадр + Авторский (одноголосый, закадровый) А.Гаврилов + Авторский (одноголосый, закадровый) В.Горчаков

Файл
Качество: BDRip 1080p
Формат: Matroska
Видео: 1920х1040 at 23.976 fps, x264@L4.1, ~10000 kbps avg
Aудио#1: Russian: 48 kHz, AC3, 2/0 (L,R) ch, ~192 kbps avg |Многоголосый закадровый, TB3|
Aудио#2: Russian: 48 kHz, AC3, 2/0 (L,R) ch, ~192 kbps avg |Многоголосый закадровый, HTB|
Aудио#3: Russian: 48 kHz, AC3, 2/0 (L,R) ch, ~192 kbps avg |Многоголосый закадровый, CTC|
Aудио#4: Russian: 48 kHz, AC3, 2/0 (L,R) ch, ~192 kbps avg |Многоголосый закадровый, СВ-Кадр|
Aудио#5: Russian: 48 kHz, AC3, 2/0 (L,R) ch, ~192 kbps avg |Авторский, А.Гаврилов|
Aудио#6: Russian: 48 kHz, AC3, 2/0 (L,R) ch, ~192 kbps avg |Авторский, В.Горчаков|
Аудио#7: English: 48 kHz, DTS, 2/0 (L,R) ch, ~755 kbps avg
Субтитры: None

***Сохранены оригинальные главы как на Blu-ray.
***Релиз - NovaLan@Sergei7721.

[*]Режиссёр фильма Юджин Леви сам снялся в эпизодической роли кассира казино.
Общее
Уникальный идентификатор : 223933080325153111125553341624167795323 (0xA877F1474486800CAF3F66B888298A7B)
Полное имя : Once.Upon.a.Crime.1992.x264.BDRip.1080p.NovaLan.mkv
Формат : Matroska
Версия формата : Version 4 / Version 2
Размер файла : 7,92 Гбайт
Продолжительность : 1 ч. 34 м.
Общий поток : 12,0 Мбит/сек
Название фильма : Once Upon a Crime... 1992 - NovaLan
Дата кодирования : UTC 2017-04-28 00:53:21
Программа кодирования : mkvmerge v6.9.1 ('Blue Panther') 64bit built on Apr 18 2014 18:23:38
Библиотека кодирования : libebml v1.3.0 + libmatroska v1.4.1

Видео
Идентификатор : 1
Формат : AVC
Формат/Информация : Advanced Video Codec
Профиль формата : High@L4.1
Параметр CABAC формата : Да
Параметр ReFrames формата : 4 кадра
Идентификатор кодека : V_MPEG4/ISO/AVC
Продолжительность : 1 ч. 34 м.
Битрейт : 10,1 Мбит/сек
Ширина : 1920 пикселей
Высота : 1040 пикселей
Соотношение сторон : 1,85:1
Режим частоты кадров : Постоянный
Частота кадров : 23,976 кадра/сек
Цветовое пространство : YUV
Субдискретизация насыщенности : 4:2:0
Битовая глубина : 8 бит
Тип развёртки : Прогрессивная
Бит/(Пиксели*Кадры) : 0.211
Размер потока : 6,49 Гбайт (82%)
Заголовок : Sergei7721
Библиотека кодирования : x264 core 148 r2762 90a61ec
Настройки программы : cabac=1 / ref=4 / deblock=1:-1:-1 / analyse=0x3:0x113 / me=umh / subme=11 / psy=1 / psy_rd=1.00:0.20 / mixed_ref=1 / me_range=24 / chroma_me=1 / trellis=2 / 8x8dct=1 / cqm=0 / deadzone=21,11 / fast_pskip=0 / chroma_qp_offset=-3 / threads=12 / lookahead_threads=1 / sliced_threads=0 / nr=0 / decimate=0 / interlaced=0 / bluray_compat=0 / constrained_intra=0 / bframes=6 / b_pyramid=2 / b_adapt=2 / b_bias=0 / direct=3 / weightb=1 / open_gop=0 / weightp=2 / keyint=240 / keyint_min=23 / scenecut=40 / intra_refresh=0 / rc_lookahead=40 / rc=2pass / mbtree=0 / bitrate=10090 / ratetol=1.0 / qcomp=0.60 / qpmin=0 / qpmax=69 / qpstep=4 / cplxblur=20.0 / qblur=0.5 / vbv_maxrate=50000 / vbv_bufsize=62500 / nal_hrd=none / filler=0 / ip_ratio=1.40 / pb_ratio=1.30 / aq=1:1.00
Default : Да
Forced : Нет

Аудио #1
Идентификатор : 2
Формат : AC-3
Формат/Информация : Audio Coding 3
Профиль формата : Dolby Digital
Расширение режима : CM (complete main)
Параметр Endianness формата : Big
Идентификатор кодека : A_AC3
Продолжительность : 1 ч. 34 м.
Вид битрейта : Постоянный
Битрейт : 192 Кбит/сек
Каналы : 2 канала
Расположение каналов : Front: L R
Частота : 48,0 КГц
Битовая глубина : 16 бит
Метод сжатия : С потерями
Размер потока : 130 Мбайт (2%)
Язык : Russian
Default : Да
Forced : Нет

Аудио #2
Идентификатор : 3
Формат : AC-3
Формат/Информация : Audio Coding 3
Расширение режима : CM (complete main)
Параметр Endianness формата : Big
Идентификатор кодека : A_AC3
Продолжительность : 1 ч. 34 м.
Вид битрейта : Постоянный
Битрейт : 192 Кбит/сек
Каналы : 2 канала
Расположение каналов : Front: L R
Частота : 48,0 КГц
Битовая глубина : 16 бит
Метод сжатия : С потерями
Размер потока : 130 Мбайт (2%)
Язык : Russian
Default : Нет
Forced : Нет

Аудио #3
Идентификатор : 4
Формат : AC-3
Формат/Информация : Audio Coding 3
Расширение режима : CM (complete main)
Параметр Endianness формата : Big
Идентификатор кодека : A_AC3
Продолжительность : 1 ч. 34 м.
Вид битрейта : Постоянный
Битрейт : 192 Кбит/сек
Каналы : 2 канала
Расположение каналов : Front: L R
Частота : 48,0 КГц
Битовая глубина : 16 бит
Метод сжатия : С потерями
Размер потока : 130 Мбайт (2%)
Язык : Russian
Default : Нет
Forced : Нет

Аудио #4
Идентификатор : 5
Формат : AC-3
Формат/Информация : Audio Coding 3
Расширение режима : CM (complete main)
Параметр Endianness формата : Big
Идентификатор кодека : A_AC3
Продолжительность : 1 ч. 34 м.
Вид битрейта : Постоянный
Битрейт : 192 Кбит/сек
Каналы : 2 канала
Расположение каналов : Front: L R
Частота : 48,0 КГц
Битовая глубина : 16 бит
Метод сжатия : С потерями
Размер потока : 130 Мбайт (2%)
Язык : Russian
Default : Нет
Forced : Нет

Аудио #5
Идентификатор : 6
Формат : AC-3
Формат/Информация : Audio Coding 3
Профиль формата : Dolby Digital
Расширение режима : CM (complete main)
Параметр Endianness формата : Big
Идентификатор кодека : A_AC3
Продолжительность : 1 ч. 34 м.
Вид битрейта : Постоянный
Битрейт : 192 Кбит/сек
Каналы : 2 канала
Расположение каналов : Front: L R
Частота : 48,0 КГц
Битовая глубина : 16 бит
Метод сжатия : С потерями
Размер потока : 130 Мбайт (2%)
Язык : Russian
Default : Нет
Forced : Нет

Аудио #6
Идентификатор : 7
Формат : AC-3
Формат/Информация : Audio Coding 3
Расширение режима : CM (complete main)
Параметр Endianness формата : Big
Идентификатор кодека : A_AC3
Продолжительность : 1 ч. 34 м.
Вид битрейта : Постоянный
Битрейт : 192 Кбит/сек
Каналы : 2 канала
Расположение каналов : Front: L R
Частота : 48,0 КГц
Битовая глубина : 16 бит
Метод сжатия : С потерями
Размер потока : 130 Мбайт (2%)
Язык : Russian
Default : Нет
Forced : Нет

Аудио #7
Идентификатор : 8
Формат : DTS
Формат/Информация : Digital Theater Systems
Режим : 16
Параметр Endianness формата : Big
Идентификатор кодека : A_DTS
Продолжительность : 1 ч. 34 м.
Вид битрейта : Постоянный
Битрейт : 768 Кбит/сек
Каналы : 2 канала
Расположение каналов : Front: L R
Частота : 48,0 КГц
Битовая глубина : 24 бит
Метод сжатия : С потерями
Размер потока : 520 Мбайт (6%)
Язык : English
Default : Нет
Forced : Нет

Меню
00:00:00.000 : en:00:00:00.000
00:09:15.805 : en:00:09:15.805
00:22:43.195 : en:00:22:43.195
00:38:01.153 : en:00:38:01.153
00:51:16.490 : en:00:51:16.490
01:00:29.208 : en:01:00:29.208
01:11:57.938 : en:01:11:57.938
01:21:38.476 : en:01:21:38.476
01:34:24.700 : en:01:34:24.700


_________________
Проголосуй за трекер Открытый торрент трекер - RUS-MEDIA.ORG

Проголосуй Открытый торрент трекер - RUS-MEDIA.ORG



реклама партнёра


Вернуться к началу
 Профиль Отправить личное сообщение  
 
   Похожие торренты   Автор   Торрент   Размер 
В этой теме нет новых непрочитанных сообщений. Однажды преступив закон / Once Upon a Crime... [комедия, криминал, детектив, 1992] BDRip 720p, Mvo

salma3

104 | 19

4.8 ГБ

В этой теме нет новых непрочитанных сообщений. Однажды преступив черту (Максим Демченко) [Мелодрама, детектив, 2015] HDTVRip

Dracon

1190 | 41

1.37 ГБ

В этой теме нет новых непрочитанных сообщений. Однажды преступив черту (Максим Демченко) [Мелодрама, детектив, 2015] HDTV 1080i

Dracon

280 | 12

5.28 ГБ

В этой теме нет новых непрочитанных сообщений. Однажды преступив черту (Максим Демченко) [Мелодрама, детектив, 2015] HDTVRip 720p

Dracon

489 | 18

2.43 ГБ

В этой теме нет новых непрочитанных сообщений. Закон Мерфи / Murphy's Law [боевик, триллер, драма, криминал, детектив, 1986] BDRip 1080p, , Mvo+3Avo+Sub

salma3

76 | 21

7.64 ГБ

В этой теме нет новых непрочитанных сообщений. Настоящее преступление / True Crime [триллер, драма, криминал, детектив, 1999] BDRip 1080p, Mvo+Sub

salma3

42 | 9

20.53 ГБ

В этой теме нет новых непрочитанных сообщений. Дезорганизованная преступность / Disorganized Crime [комедия, криминал, 1989] BDRip 1080p, Dvo

salma3

11 | 3

8.61 ГБ


Начать новую тему Ответить на тему  [ 1 сообщение ] 




Для Мосгорсуда, Роскомнадзора и рекламодателей:: mosgorsud-torrent[собачка]yandex.ru