Торрент файл
скачать торрент магнет ссылка Добавлен: 06 авг 2017, 13:19
Размер: 10.82 ГБ
Сидеров: 59
Личеров: 14
Статус: (salma3)
Автор

СообщениеДобавлено: 06 авг 2017, 13:19 

Не в сети
Супермодератор
Аватара пользователя
Дата регистрации:
15 фев 2012, 16:44
Возраст: 28
Спасибо: 6642 / 2146
Сообщения: 45738
Год выхода: 1987
Жанр: боевик, триллер, драма, криминал
Режиссер: Гари Шерман

В ролях: Рутгер Хауэр, Джин Симмонс, Роберт Гийом, Мел Харрис, Уильям Расс, Сьюзен МакДональд, Джерри Хардин, Хью Гиллам, Роберт Харпер, Эли Данкер

О фильме:
Бывший агент ЦРУ Ник Рэндолл зарабатывает на жизнь, охотясь за преступниками. Он суперпрофессионал и всегда работает один. В Лос-Анджелесе появляется «старый знакомый» Ника международный террорист Аль-Рахим, вынашивающий дьявольский план — превратить город в царство террора и смерти. Он начинает действовать, взорвав кинотеатр и похоронив под его руинами 138 ни в чем не повинных людей. На следующее утро после взрыва ЦРУ предлагает Нику 50 тысяч долларов за поимку террориста. Ник соглашается, не зная, что агенты ЦРУ решили сделать из него наживку для Аль-Рахима. И когда от рук террориста погибают два лучших друга Ника, он «забывает», что получит 50 тысяч долларов, лишь в том случае, если поймает Аль-Рахима живым. Он нужен Нику только мертвым….



Страна: США
Продолжительность: 01:46:30
Перевод: Профессиональный (многоголосый, закадровый), Профессиональный (двухголосый, закадровый), Авторский (одноголосый, закадровый, Профессиональный (одноголосый, закадровый)

Файл
Качество: BDRip 1080p
Формат: Matroska
Видео: 1920x1036 at 23.976 fps, x264@L4.1, ~11000 kbps avg
Аудио#1: Russian: 48 kHz, AC3, 3/2 (L,C,R,l,r) + LFE ch, ~448 kbps avg |Многоголосый закадровый, DVD9|
Аудио#2: Russian: 48 kHz, AC3, 2/0 (L,R) ch, ~192 kbps avg |Многоголосый закадровый, НТВ|
Аудио#3: Russian: 48 kHz, AC3, 2/0 (L,R) ch, ~192 kbps avg |Двухголосый закадровый, Екатеринбург Арт|
Аудио#4: Russian: 48 kHz, AC3, 3/2 (L,C,R,l,r) + LFE ch, ~384 kbps avg |Авторский, А.Гаврилов|
Аудио#5: Russian: 48 kHz, AC3, 3/2 (L,C,R,l,r) + LFE ch, ~448 kbps avg |Авторский, В.Завгородний|
Аудио#6: Russian: 48 kHz, AC3, 2/0 (L,R) ch, ~192 kbps avg |Авторский, А.Михалев|
Аудио#7: Russian: 48 kHz, AC3, 2/0 (L,R) ch, ~192 kbps avg |Одноголосый, В.Герасимов|
Аудио#8: English: 48 kHz, DTS, 2/0 (L,R) ch, ~1509 kbps avg
Субтитры: Russian

***Сохранены оригинальные главы как на Blu-ray.
***В переводе В.Завгороднего присутствует ненормативная лексика!
***Релиз - NovaLan@Sergei7721.

[*]Герой Хауэра, Ник Рэндалл — сын Джоша Рэндалла, главного героя телесериала «Wanted: Dead or Alive» (1958-61 годы), которого играл Стив МакКуин. Таким образом, фильм de facto является сиквелом сериала.
Общее
Уникальный идентификатор : 230556891222321036517003455865267201973 (0xAD73A45EA22148D69F328AE88218A7B5)
Полное имя : Wanted.Dead.or.Alive.1987.x264.BDRip.1080p.NovaLan.mkv
Формат : Matroska
Версия формата : Version 4 / Version 2
Размер файла : 10,8 Гбайт
Продолжительность : 1 ч. 46 м.
Общий поток : 14,5 Мбит/сек
Название фильма : Wanted: Dead or Alive 1987 - NovaLan
Дата кодирования : UTC 2016-08-13 17:16:25
Программа кодирования : mkvmerge v6.9.1 ('Blue Panther') 64bit built on Apr 18 2014 18:23:38
Библиотека кодирования : libebml v1.3.0 + libmatroska v1.4.1

Видео
Идентификатор : 1
Формат : AVC
Формат/Информация : Advanced Video Codec
Профиль формата : High@L4.1
Параметр CABAC формата : Да
Параметр ReFrames формата : 4 кадра
Идентификатор кодека : V_MPEG4/ISO/AVC
Продолжительность : 1 ч. 46 м.
Битрейт : 11,0 Мбит/сек
Ширина : 1920 пикселей
Высота : 1036 пикселей
Соотношение сторон : 1,85:1
Режим частоты кадров : Постоянный
Частота кадров : 23,976 кадра/сек
Цветовое пространство : YUV
Субдискретизация насыщенности : 4:2:0
Битовая глубина : 8 бит
Тип развёртки : Прогрессивная
Бит/(Пиксели*Кадры) : 0.230
Размер потока : 7,96 Гбайт (74%)
Заголовок : Sergei7721
Библиотека кодирования : x264 core 148 r2705 3f5ed56
Настройки программы : cabac=1 / ref=4 / deblock=1:-1:-1 / analyse=0x3:0x113 / me=umh / subme=11 / psy=1 / psy_rd=1.00:0.20 / mixed_ref=1 / me_range=24 / chroma_me=1 / trellis=2 / 8x8dct=1 / cqm=0 / deadzone=21,11 / fast_pskip=0 / chroma_qp_offset=-3 / threads=12 / lookahead_threads=1 / sliced_threads=0 / nr=0 / decimate=0 / interlaced=0 / bluray_compat=0 / constrained_intra=0 / bframes=6 / b_pyramid=2 / b_adapt=2 / b_bias=0 / direct=3 / weightb=1 / open_gop=0 / weightp=2 / keyint=240 / keyint_min=23 / scenecut=40 / intra_refresh=0 / rc_lookahead=40 / rc=2pass / mbtree=0 / bitrate=10987 / ratetol=1.0 / qcomp=0.60 / qpmin=0 / qpmax=69 / qpstep=4 / cplxblur=20.0 / qblur=0.5 / vbv_maxrate=50000 / vbv_bufsize=62500 / nal_hrd=none / filler=0 / ip_ratio=1.40 / pb_ratio=1.30 / aq=1:1.00
Default : Да
Forced : Нет

Аудио #1
Идентификатор : 2
Формат : AC-3
Формат/Информация : Audio Coding 3
Расширение режима : CM (complete main)
Параметр Endianness формата : Big
Идентификатор кодека : A_AC3
Продолжительность : 1 ч. 46 м.
Вид битрейта : Постоянный
Битрейт : 448 Кбит/сек
Каналы : 6 каналов
Расположение каналов : Front: L C R, Side: L R, LFE
Частота : 48,0 КГц
Битовая глубина : 16 бит
Метод сжатия : С потерями
Размер потока : 341 Мбайт (3%)
Язык : Russian
Default : Да
Forced : Нет

Аудио #2
Идентификатор : 3
Формат : AC-3
Формат/Информация : Audio Coding 3
Расширение режима : CM (complete main)
Параметр Endianness формата : Big
Идентификатор кодека : A_AC3
Продолжительность : 1 ч. 46 м.
Вид битрейта : Постоянный
Битрейт : 192 Кбит/сек
Каналы : 2 канала
Расположение каналов : Front: L R
Частота : 48,0 КГц
Битовая глубина : 16 бит
Метод сжатия : С потерями
Размер потока : 146 Мбайт (1%)
Язык : Russian
Default : Нет
Forced : Нет

Аудио #3
Идентификатор : 4
Формат : AC-3
Формат/Информация : Audio Coding 3
Расширение режима : CM (complete main)
Параметр Endianness формата : Big
Идентификатор кодека : A_AC3
Продолжительность : 1 ч. 46 м.
Вид битрейта : Постоянный
Битрейт : 192 Кбит/сек
Каналы : 2 канала
Расположение каналов : Front: L R
Частота : 48,0 КГц
Битовая глубина : 16 бит
Метод сжатия : С потерями
Размер потока : 146 Мбайт (1%)
Язык : Russian
Default : Нет
Forced : Нет

Аудио #4
Идентификатор : 5
Формат : AC-3
Формат/Информация : Audio Coding 3
Расширение режима : CM (complete main)
Параметр Endianness формата : Big
Идентификатор кодека : A_AC3
Продолжительность : 1 ч. 46 м.
Вид битрейта : Постоянный
Битрейт : 384 Кбит/сек
Каналы : 6 каналов
Расположение каналов : Front: L C R, Side: L R, LFE
Частота : 48,0 КГц
Битовая глубина : 16 бит
Метод сжатия : С потерями
Размер потока : 293 Мбайт (3%)
Язык : Russian
Default : Нет
Forced : Нет

Аудио #5
Идентификатор : 6
Формат : AC-3
Формат/Информация : Audio Coding 3
Расширение режима : CM (complete main)
Параметр Endianness формата : Big
Идентификатор кодека : A_AC3
Продолжительность : 1 ч. 46 м.
Вид битрейта : Постоянный
Битрейт : 448 Кбит/сек
Каналы : 6 каналов
Расположение каналов : Front: L C R, Side: L R, LFE
Частота : 48,0 КГц
Битовая глубина : 16 бит
Метод сжатия : С потерями
Размер потока : 341 Мбайт (3%)
Язык : Russian
Default : Нет
Forced : Нет

Аудио #6
Идентификатор : 7
Формат : AC-3
Формат/Информация : Audio Coding 3
Расширение режима : CM (complete main)
Параметр Endianness формата : Big
Идентификатор кодека : A_AC3
Продолжительность : 1 ч. 46 м.
Вид битрейта : Постоянный
Битрейт : 192 Кбит/сек
Каналы : 2 канала
Расположение каналов : Front: L R
Частота : 48,0 КГц
Битовая глубина : 16 бит
Метод сжатия : С потерями
Размер потока : 146 Мбайт (1%)
Язык : Russian
Default : Нет
Forced : Нет

Аудио #7
Идентификатор : 8
Формат : AC-3
Формат/Информация : Audio Coding 3
Расширение режима : CM (complete main)
Параметр Endianness формата : Big
Идентификатор кодека : A_AC3
Продолжительность : 1 ч. 46 м.
Вид битрейта : Постоянный
Битрейт : 192 Кбит/сек
Каналы : 2 канала
Расположение каналов : Front: L R
Частота : 48,0 КГц
Битовая глубина : 16 бит
Метод сжатия : С потерями
Размер потока : 146 Мбайт (1%)
Язык : Russian
Default : Нет
Forced : Нет

Аудио #8
Идентификатор : 9
Формат : DTS
Формат/Информация : Digital Theater Systems
Режим : 16
Параметр Endianness формата : Big
Идентификатор кодека : A_DTS
Продолжительность : 1 ч. 46 м.
Вид битрейта : Постоянный
Битрейт : 1509 Кбит/сек
Каналы : 2 канала
Расположение каналов : Front: L R
Частота : 48,0 КГц
Битовая глубина : 16 бит
Метод сжатия : С потерями
Размер потока : 1,12 Гбайт (10%)
Язык : English
Default : Нет
Forced : Нет

Текст
Идентификатор : 10
Формат : UTF-8
Идентификатор кодека : S_TEXT/UTF8
Идентификатор кодека/Информация : UTF-8 Plain Text
Язык : Russian
Default : Нет
Forced : Нет

Меню
00:00:00.000 : en:00:00:00.000
00:08:21.501 : en:00:08:21.501
00:17:59.912 : en:00:17:59.912
00:26:58.158 : en:00:26:58.158
00:35:23.371 : en:00:35:23.371
00:44:55.984 : en:00:44:55.984
00:51:43.558 : en:00:51:43.558
01:03:05.615 : en:01:03:05.615
01:13:33.367 : en:01:13:33.367
01:21:19.958 : en:01:21:19.958
01:30:19.831 : en:01:30:19.831
01:40:15.926 : en:01:40:15.926
01:46:28.548 : en:01:46:28.548


_________________
Проголосуй за трекер Открытый торрент трекер - RUS-MEDIA.ORG

Проголосуй Открытый торрент трекер - RUS-MEDIA.ORG



реклама партнёра


Вернуться к началу
 Профиль Отправить личное сообщение  
 
   Похожие торренты   Автор   Торрент   Размер 
В этой теме нет новых непрочитанных сообщений. Взять живым или мертвым / Wanted: Dead or Alive [боевик, триллер, драма, 1987] BDRip, Mvo

salma3

66 | 30

1.45 ГБ

В этой теме нет новых непрочитанных сообщений. Взять живым или мертвым / Wanted: Dead or Alive [боевик, триллер, драма, 1987] BDRip, Mvo

salma3

65 | 30

2.18 ГБ

В этой теме нет новых непрочитанных сообщений. Взять живым или мертвым / Wanted: Dead or Alive [боевик, триллер, драма, 1987] BDRip 720p, Mvo

salma3

34 | 8

4.36 ГБ

В этой теме нет новых непрочитанных сообщений. Живым или мертвым / Dead or Alive: Hanzaisha [криминал, драма, триллер, 1999] BDRemux 1080p, Mvo

salma3

5 | 12

21.47 ГБ

В этой теме нет новых непрочитанных сообщений. Живым или мертвым / Dead or Alive: Hanzaisha [боевик, триллер, драма, 1999] BDRip, Mvo

salma3

19 | 8

1.45 ГБ

В этой теме нет новых непрочитанных сообщений. Наперегонки со смертью / Dead Man Running [боевик, триллер, драма, криминал, 2009] BDRip 1080p, Mvo

salma3

17 | 3

7.26 ГБ

В этой теме нет новых непрочитанных сообщений. Смертельная красотка / Fatal Beauty [Боевик, триллер, драма, комедия, криминал, 1987] BDRip 1080p, Dvo+Avo

salma3

42 | 22

13.34 ГБ


Начать новую тему Ответить на тему  [ 1 сообщение ] 




Для Мосгорсуда, Роскомнадзора и рекламодателей:: mosgorsud-torrent[собачка]yandex.ru