Торрент файл
скачать торрент магнет ссылка Добавлен: 06 авг 2017, 12:50
Размер: 7.4 ГБ
Сидеров: 57
Личеров: 17
Статус: (salma3)
Автор

СообщениеДобавлено: 06 авг 2017, 12:50 

В сети
Супермодератор
Аватара пользователя
Дата регистрации:
15 фев 2012, 16:44
Возраст: 28
Спасибо: 6480 / 2129
Сообщения: 41123
Год выхода: 1982
Жанр: ужасы, комедия
Режиссер: Эми Холден Джонс

В ролях: Мишель Майклс, Робин Стилл, Майкл Виллелла, Дебра Делисо, Эндри Онор, Джина Мари, Дженнифер Мейерс, Джозеф Алан Джонсон, Дэвид Миллберн, Джеймс Рейд Бойс, ...

О фильме: Восемнадцатилетняя Триш решает устроить вечеринку для своих друзей, членов школьной баскетбольной команды. Но ребята даже не подозревали, что маньяк по имени Расс Торн, который в 1969 году убил пять человек, сбежал из психиатрической лечебницы. Он выбрал Триш в качестве своей очередной жертвы, проследил за ней от школы до самого дома, куда под покровом темноты и проник в самый разгар вечеринки…



Страна: США
Продолжительность: 01:16:15
Перевод: Авторский (одноголосый, закадровый) Дольский Андрей Игоревич
- Любительский (одноголосый, закадровый) ?

Кодек: x264
Качество: BDRip 1080p
Видео: 1920x1080, 12000 kbps, 23,976 fps
Аудио #1: AC-3, 2 ch, 192 kbps (Rus) - AVO Дольский Андрей Игоревич
Аудио #2: AC-3, 2 ch, 192 kbps (Rus) - VO
Аудио #3: DTS, 2 ch, 1509 kbps (Eng)
Субтитры: Английские

За исходник спасибо - Тарантиныч
За Дольского спасибо - Танцующий в темноте
x264 [info]: frame I:554 Avg QP:18.17 size:157084
x264 [info]: frame P:21961 Avg QP:19.89 size: 97497
x264 [info]: frame B:87164 Avg QP:21.92 size: 53100
x264 [info]: consecutive B-frames: 0.9% 1.5% 5.9% 17.1% 14.2% 52.3% 4.7% 0.8% 1.5% 0.7% 0.3%

Общее
Уникальный идентификатор : 195173188940762174696184359891817336059 (0x92D4FD280AFB76588EDC1132C93A0CFB)
Полное имя : Кровавая вечеринка (The Slumber Party Massacre) 1982 BDRip 1080p.mkv
Формат : Matroska
Версия формата : Version 2
Размер файла : 7,40 Гбайт
Продолжительность : 1 ч. 16 м.
Общий поток : 13,9 Мбит/сек
Дата кодирования : UTC 2017-08-05 10:35:23
Программа кодирования : mkvmerge v4.0.0 ('The Stars were mine') сборка от Jun 6 2010 16:18:42
Библиотека кодирования : libebml v1.0.0 + libmatroska v1.0.0

Видео
Идентификатор : 1
Формат : AVC
Формат/Информация : Advanced Video Codec
Профиль формата : High@L4.1
Параметр CABAC формата : Да
Параметр ReFrames формата : 4 кадра
Идентификатор кодека : V_MPEG4/ISO/AVC
Продолжительность : 1 ч. 16 м.
Битрейт : 12,0 Мбит/сек
Ширина : 1920 пикселей
Высота : 1080 пикселей
Соотношение сторон : 16:9
Режим частоты кадров : Постоянный
Частота кадров : 23,976 (24000/1001) кадра/сек
Цветовое пространство : YUV
Субдискретизация насыщенности : 4:2:0
Битовая глубина : 8 бит
Тип развёртки : Прогрессивная
Бит/(Пиксели*Кадры) : 0.241
Размер потока : 6,24 Гбайт (84%)
Библиотека кодирования : x264 core 146 r2538 121396c
Настройки программы : cabac=1 / ref=4 / deblock=1:-1:-1 / analyse=0x3:0x133 / me=umh / subme=11 / psy=1 / psy_rd=1.00:0.00 / mixed_ref=1 / me_range=32 / chroma_me=1 / trellis=2 / 8x8dct=1 / cqm=0 / deadzone=21,11 / fast_pskip=0 / chroma_qp_offset=-2 / threads=12 / lookahead_threads=2 / sliced_threads=0 / nr=0 / decimate=0 / interlaced=0 / bluray_compat=0 / constrained_intra=0 / bframes=10 / b_pyramid=2 / b_adapt=2 / b_bias=0 / direct=3 / weightb=1 / open_gop=0 / weightp=2 / keyint=240 / keyint_min=23 / scenecut=40 / intra_refresh=0 / rc=2pass / mbtree=0 / bitrate=12000 / ratetol=1.0 / qcomp=0.60 / qpmin=0 / qpmax=69 / qpstep=4 / cplxblur=20.0 / qblur=0.5 / ip_ratio=1.40 / pb_ratio=1.30 / aq=3:0.90
Язык : English
Default : Нет
Forced : Нет

Аудио #1
Идентификатор : 2
Формат : AC-3
Формат/Информация : Audio Coding 3
Расширение режима : CM (complete main)
Параметр Endianness формата : Big
Идентификатор кодека : A_AC3
Продолжительность : 1 ч. 16 м.
Вид битрейта : Постоянный
Битрейт : 192 Кбит/сек
Каналы : 2 канала
Расположение каналов : Front: L R
Частота : 48,0 КГц
Частота кадров : 31,250 кадров/сек (1536 spf)
Метод сжатия : С потерями
Размер потока : 105 Мбайт (1%)
Заголовок : AVO Дольский Андрей Игоревич
Язык : Russian
Default : Нет
Forced : Нет

Аудио #2
Идентификатор : 3
Формат : AC-3
Формат/Информация : Audio Coding 3
Расширение режима : CM (complete main)
Параметр Endianness формата : Big
Идентификатор кодека : A_AC3
Продолжительность : 1 ч. 16 м.
Вид битрейта : Постоянный
Битрейт : 192 Кбит/сек
Каналы : 2 канала
Расположение каналов : Front: L R
Частота : 48,0 КГц
Частота кадров : 31,250 кадров/сек (1536 spf)
Метод сжатия : С потерями
Размер потока : 105 Мбайт (1%)
Заголовок : VO
Язык : Russian
Default : Нет
Forced : Нет

Аудио #3
Идентификатор : 4
Формат : DTS
Формат/Информация : Digital Theater Systems
Режим : 16
Параметр Endianness формата : Big
Идентификатор кодека : A_DTS
Продолжительность : 1 ч. 16 м.
Вид битрейта : Постоянный
Битрейт : 1509 Кбит/сек
Каналы : 2 канала
Расположение каналов : Front: L R
Частота : 48,0 КГц
Частота кадров : 93,750 кадра/сек (512 spf)
Битовая глубина : 24 бит
Метод сжатия : С потерями
Размер потока : 823 Мбайт (11%)
Язык : English
Default : Нет
Forced : Нет

Текст #1
Идентификатор : 5
Формат : UTF-8
Идентификатор кодека : S_TEXT/UTF8
Идентификатор кодека/Информация : UTF-8 Plain Text
Язык : English
Default : Нет
Forced : Нет

Текст #2
Идентификатор : 6
Формат : UTF-8
Идентификатор кодека : S_TEXT/UTF8
Идентификатор кодека/Информация : UTF-8 Plain Text
Заголовок : SDH
Язык : English
Default : Нет
Forced : Нет


_________________
Проголосуй за трекер Открытый торрент трекер - RUS-MEDIA.ORG

Проголосуй Открытый торрент трекер - RUS-MEDIA.ORG



реклама партнёра


Вернуться к началу
 Профиль Отправить личное сообщение  
 
   Похожие торренты   Автор   Торрент   Размер 
В этой теме нет новых непрочитанных сообщений. Кровавая вечеринка 2 / Slumber Party Massacre II [ужасы, комедия, 1987] BDRip 1080p, Avo

salma3

26 | 8

6.4 ГБ

В этой теме нет новых непрочитанных сообщений. Кровавая вечеринка 3 / Slumber Party Massacre III [ужасы, комедия, 1990] BDRip 1080p, Avo

salma3

31 | 28

7.41 ГБ

В этой теме нет новых непрочитанных сообщений. Slumber Party 30 / Вечеринка с ночёвкой 30 (Immoral Productions) [2015 г., WEBRip, All Girl / Lesbian, Toy, Strap-Ons, Big Tits, Threesomes]

max77777

2 | 1

1.31 ГБ

В этой теме нет новых непрочитанных сообщений. Резня женщин / Sorority Party Massacre [ужасы, детектив, комедия, 2012] HDRip, Avo

salma3

43 | 5

1.3 ГБ

В этой теме нет новых непрочитанных сообщений. Домашняя вечеринка / House Party [мелодрама, комедия, музыка, 1990] WEB-DL 1080p, Mvo+Avo+Sub

salma3

25 | 4

4.4 ГБ

В этой теме нет новых непрочитанных сообщений. Кровавая гонка / Кровавая езда / Blood Drive [S01] [Драма, ужасы, фантастика, 2017] WEB-DLRip 1080p, Mvo [IdeaFilm]

salma3

13 | 18

30.29 ГБ

В этой теме нет новых непрочитанных сообщений. Кровавая ночь / Blood Night: The Legend of Mary Hatchet [ужасы, 2009] BDRip 1080p, Avo

salma3

169 | 58

5.28 ГБ


Начать новую тему Ответить на тему  [ 1 сообщение ] 




Для Мосгорсуда, Роскомнадзора и рекламодателей:: mosgorsud-torrent[собачка]yandex.ru