Торрент файл
скачать торрент магнет ссылка Добавлен: 06 авг 2017, 12:47
Размер: 6.4 ГБ
Сидеров: 26
Личеров: 8
Статус: (salma3)
Автор

СообщениеДобавлено: 06 авг 2017, 12:47 

Не в сети
Супермодератор
Аватара пользователя
Дата регистрации:
15 фев 2012, 16:44
Возраст: 28
Спасибо: 6672 / 2146
Сообщения: 46169
Год выхода: 1987
Жанр: ужасы, комедия
Режиссер: Дебора Брок

В ролях: Кристал Бернард, Дженнифер Родс, Кимберли МакАртур, Патрик Лоу, Джульетт Камминс, Хайди Козак, Синди Эйлбэхер, Атанас Илич, Джоэль Хоффман, Скотт Вэстмолэнд, ...

О фильме: Одна из выживших в первом фильме девушек по имени Кортни страдает от ночных кошмаров и видений страшных сцен убийств, случившихся на той вечеринке. Ей снится убийца с дрелью, одетый в кожу рок -музыкант со сверлом на грифе своей красной гитары. Во время путешествия на уик — энд вместе со свои парнем, участником школьной рок-группы, ее кошмары становятся еще более ужасающими. Подружки Кортни думают, что она сошла с ума, но они даже представить себе не могут, что скоро ее кошмары воплотятся в реальность, когда обнаружат, что убийца с дрелью вернулся…



Страна: США
Продолжительность: 01:15:51
Перевод: Авторский (одноголосый, закадровый) Дольский Андрей Игоревич

Кодек: x264
Качество: BDRip 1080p
Видео: 1920x1080, 11700 kbps, 23,976 fps
Аудио #1: AC-3, 2 ch, 192 kbps (Rus) - AVO Дольский Андрей Игоревич
Аудио #2: AC-3, 2 ch, 224 kbps (Eng)
Субтитры: Английские

За дорогу Дольского спасибо - ZZZanan111
Общее
Уникальный идентификатор : 226533302699156713498165712832720271097 (0xAA6CBA23ADECE348B1BDC9EB412BF6F9)
Полное имя : Кровавая вечеринка 2 (Slumber Party Massacre II) 1987 BDRip 1080p.mkv
Формат : Matroska
Версия формата : Version 2
Размер файла : 6,40 Гбайт
Продолжительность : 1 ч. 15 м.
Общий поток : 12,1 Мбит/сек
Дата кодирования : UTC 2017-08-05 18:17:21
Программа кодирования : mkvmerge v4.0.0 ('The Stars were mine') сборка от Jun 6 2010 16:18:42
Библиотека кодирования : libebml v1.0.0 + libmatroska v1.0.0

Видео
Идентификатор : 1
Формат : AVC
Формат/Информация : Advanced Video Codec
Профиль формата : High@L4.1
Параметр CABAC формата : Да
Параметр ReFrames формата : 4 кадра
Идентификатор кодека : V_MPEG4/ISO/AVC
Продолжительность : 1 ч. 15 м.
Битрейт : 11,7 Мбит/сек
Ширина : 1920 пикселей
Высота : 1080 пикселей
Соотношение сторон : 16:9
Режим частоты кадров : Постоянный
Частота кадров : 23,976 (24000/1001) кадра/сек
Цветовое пространство : YUV
Субдискретизация насыщенности : 4:2:0
Битовая глубина : 8 бит
Тип развёртки : Прогрессивная
Бит/(Пиксели*Кадры) : 0.235
Размер потока : 6,05 Гбайт (95%)
Библиотека кодирования : x264 core 148 r2744 b97ae06
Настройки программы : cabac=1 / ref=4 / deblock=1:-3:-3 / analyse=0x3:0x113 / me=umh / subme=8 / psy=1 / psy_rd=1.00:0.25 / mixed_ref=1 / me_range=24 / chroma_me=1 / trellis=1 / 8x8dct=1 / cqm=0 / deadzone=21,11 / fast_pskip=1 / chroma_qp_offset=-4 / threads=30 / lookahead_threads=5 / sliced_threads=0 / nr=0 / decimate=1 / interlaced=0 / bluray_compat=0 / constrained_intra=0 / bframes=3 / b_pyramid=2 / b_adapt=1 / b_bias=0 / direct=3 / weightb=1 / open_gop=0 / weightp=2 / keyint=240 / keyint_min=24 / scenecut=40 / intra_refresh=0 / rc_lookahead=50 / rc=2pass / mbtree=1 / bitrate=11664 / ratetol=1.0 / qcomp=0.60 / qpmin=0 / qpmax=69 / qpstep=4 / cplxblur=20.0 / qblur=0.5 / ip_ratio=1.40 / aq=1:0.75
Язык : English
Default : Нет
Forced : Нет

Аудио #1
Идентификатор : 2
Формат : AC-3
Формат/Информация : Audio Coding 3
Расширение режима : CM (complete main)
Параметр Endianness формата : Big
Идентификатор кодека : A_AC3
Продолжительность : 1 ч. 15 м.
Вид битрейта : Постоянный
Битрейт : 192 Кбит/сек
Каналы : 2 канала
Расположение каналов : Front: L R
Частота : 48,0 КГц
Частота кадров : 31,250 кадров/сек (1536 spf)
Метод сжатия : С потерями
Размер потока : 104 Мбайт (2%)
Заголовок : AVO Дольский Андрей Игоревич
Язык : Russian
Default : Нет
Forced : Нет

Аудио #2
Идентификатор : 3
Формат : AC-3
Формат/Информация : Audio Coding 3
Расширение режима : CM (complete main)
Параметр Endianness формата : Big
Идентификатор кодека : A_AC3
Продолжительность : 1 ч. 15 м.
Вид битрейта : Постоянный
Битрейт : 224 Кбит/сек
Каналы : 2 канала
Расположение каналов : Front: L R
Частота : 48,0 КГц
Частота кадров : 31,250 кадров/сек (1536 spf)
Метод сжатия : С потерями
Размер потока : 122 Мбайт (2%)
Язык : English
Default : Нет
Forced : Нет

Текст #1
Идентификатор : 4
Формат : UTF-8
Идентификатор кодека : S_TEXT/UTF8
Идентификатор кодека/Информация : UTF-8 Plain Text
Язык : English
Default : Нет
Forced : Нет

Текст #2
Идентификатор : 5
Формат : UTF-8
Идентификатор кодека : S_TEXT/UTF8
Идентификатор кодека/Информация : UTF-8 Plain Text
Заголовок : SDH
Язык : English
Default : Нет
Forced : Нет

Меню
00:00:00.000 : en:00:00:00.000
00:06:29.097 : en:00:06:29.097
00:13:13.418 : en:00:13:13.418
00:19:20.701 : en:00:19:20.701
00:24:42.523 : en:00:24:42.523
00:30:16.898 : en:00:30:16.898
00:36:26.643 : en:00:36:26.643
00:41:17.809 : en:00:41:17.809
00:46:08.474 : en:00:46:08.474
00:53:09.103 : en:00:53:09.103
00:59:51.296 : en:00:59:51.296
01:07:24.040 : en:01:07:24.040


_________________
Проголосуй за трекер Открытый торрент трекер - RUS-MEDIA.ORG

Проголосуй Открытый торрент трекер - RUS-MEDIA.ORG



реклама партнёра


Вернуться к началу
 Профиль Отправить личное сообщение  
 
   Похожие торренты   Автор   Торрент   Размер 
В этой теме нет новых непрочитанных сообщений. Кровавая вечеринка / The Slumber Party Massacre [ужасы, комедия, 1982] BDRip 1080p, Avo

salma3

57 | 17

7.4 ГБ

В этой теме нет новых непрочитанных сообщений. Кровавая вечеринка 3 / Slumber Party Massacre III [ужасы, комедия, 1990] BDRip 1080p, Avo

salma3

31 | 28

7.41 ГБ

В этой теме нет новых непрочитанных сообщений. Slumber Party 30 / Вечеринка с ночёвкой 30 (Immoral Productions) [2015 г., WEBRip, All Girl / Lesbian, Toy, Strap-Ons, Big Tits, Threesomes]

max77777

2 | 1

1.31 ГБ

В этой теме нет новых непрочитанных сообщений. Резня женщин / Sorority Party Massacre [ужасы, детектив, комедия, 2012] HDRip, Avo

salma3

43 | 5

1.3 ГБ

В этой теме нет новых непрочитанных сообщений. Домашняя вечеринка / House Party [мелодрама, комедия, музыка, 1990] WEB-DL 1080p, Mvo+Avo+Sub

salma3

25 | 4

4.4 ГБ

В этой теме нет новых непрочитанных сообщений. Кровавая гонка / Кровавая езда / Blood Drive [S01] [Драма, ужасы, фантастика, 2017] WEB-DLRip 1080p, Mvo [IdeaFilm]

salma3

13 | 18

30.29 ГБ

В этой теме нет новых непрочитанных сообщений. Кровавая ночь / Blood Night: The Legend of Mary Hatchet [ужасы, 2009] BDRip 1080p, Avo

salma3

169 | 58

5.28 ГБ


Начать новую тему Ответить на тему  [ 1 сообщение ] 




Для Мосгорсуда, Роскомнадзора и рекламодателей:: mosgorsud-torrent[собачка]yandex.ru