Торрент файл
скачать торрент магнет ссылка Добавлен: 31 июл 2017, 12:00
Размер: 6.95 ГБ
Сидеров: 315
Личеров: 141
Статус: (salma3)
Автор

СообщениеДобавлено: 31 июл 2017, 12:00 

Не в сети
Супермодератор
Аватара пользователя
Дата регистрации:
15 фев 2012, 16:44
Возраст: 28
Спасибо: 7224 / 2147
Сообщения: 67851
Год выхода: 2016
Жанр: ужасы, триллер, комедия
Режиссер: Винсент Машиал

В ролях: Лукас Нефф, Кэйтлин Стэйси, Крис Маркетт, Стефани Дрэйк, Марк Мозес, Эбигейл Бреслин, Ричард Рили, Патрик Ренна, Наоми Гроссман, Лесли Джордан, ...

О фильме: Если вам в жизни не хватает острых впечатлений или вы обожаете фильмы ужасов и знаете все сцены убийств наизусть, обратитесь в корпорацию «Страх». Там изготовят на заказ ваши персональные страхи, и прежняя скучная жизнь вам покажется раем…



Страна: США
Продолжительность: 01:31:50
Перевод: Любительский (одноголосый, закадровый) Хихикающий доктор

Кодек: x264
Качество: BDRip 1080p
Видео: 1920x800, 8687 kbps, 23,976 fps
Аудио #1: AC-3, 6 ch, 640 kbps (Rus) - VO Xixidok
Аудио #2: DTS, 6 ch, 1509 kbps (Eng)
Субтитры: Английские

Общее
Уникальный идентификатор : 187058931535024796639376519735523728176 (0x8CBA3D60F760AD3B8FA249CE1AECDB30)
Полное имя : Корпорация «Страх» (Fear, Inc.) 2016 BDRip 1080p.mkv
Формат : Matroska
Версия формата : Version 2
Размер файла : 6,95 Гбайт
Продолжительность : 1 ч. 31 м.
Общий поток : 10,8 Мбит/сек
Дата кодирования : UTC 2017-07-30 15:27:36
Программа кодирования : mkvmerge v4.0.0 ('The Stars were mine') сборка от Jun 6 2010 16:18:42
Библиотека кодирования : libebml v1.0.0 + libmatroska v1.0.0

Видео
Идентификатор : 1
Формат : AVC
Формат/Информация : Advanced Video Codec
Профиль формата : High@L4.1
Параметр CABAC формата : Да
Параметр ReFrames формата : 5 кадров
Идентификатор кодека : V_MPEG4/ISO/AVC
Продолжительность : 1 ч. 31 м.
Битрейт : 8687 Кбит/сек
Ширина : 1920 пикселей
Высота : 800 пикселей
Соотношение сторон : 2,40:1
Режим частоты кадров : Постоянный
Частота кадров : 23,976 кадра/сек
Цветовое пространство : YUV
Субдискретизация насыщенности : 4:2:0
Битовая глубина : 8 бит
Тип развёртки : Прогрессивная
Бит/(Пиксели*Кадры) : 0.236
Размер потока : 5,44 Гбайт (78%)
Библиотека кодирования : x264 core 150 r2833 df79067
Настройки программы : cabac=1 / ref=5 / deblock=1:0:0 / analyse=0x3:0x133 / me=umh / subme=8 / psy=1 / psy_rd=1.00:0.00 / mixed_ref=1 / me_range=16 / chroma_me=1 / trellis=1 / 8x8dct=1 / cqm=0 / deadzone=21,11 / fast_pskip=0 / chroma_qp_offset=-2 / threads=12 / lookahead_threads=2 / sliced_threads=0 / nr=0 / decimate=1 / interlaced=0 / bluray_compat=0 / constrained_intra=0 / bframes=3 / b_pyramid=2 / b_adapt=1 / b_bias=0 / direct=1 / weightb=1 / open_gop=0 / weightp=2 / keyint=250 / keyint_min=23 / scenecut=40 / intra_refresh=0 / rc_lookahead=40 / rc=2pass / mbtree=1 / bitrate=8687 / ratetol=1.0 / qcomp=0.60 / qpmin=0 / qpmax=69 / qpstep=4 / cplxblur=20.0 / qblur=0.5 / ip_ratio=1.40 / aq=1:1.00
Язык : English
Default : Нет
Forced : Нет

Аудио #1
Идентификатор : 2
Формат : AC-3
Формат/Информация : Audio Coding 3
Расширение режима : CM (complete main)
Параметр Endianness формата : Big
Идентификатор кодека : A_AC3
Продолжительность : 1 ч. 31 м.
Вид битрейта : Постоянный
Битрейт : 640 Кбит/сек
Каналы : 6 каналов
Расположение каналов : Front: L C R, Side: L R, LFE
Частота : 48,0 КГц
Частота кадров : 31,250 кадров/сек (1536 spf)
Метод сжатия : С потерями
Размер потока : 420 Мбайт (6%)
Заголовок : VO Xixidok
Язык : Russian
Default : Нет
Forced : Нет

Аудио #2
Идентификатор : 3
Формат : DTS
Формат/Информация : Digital Theater Systems
Режим : 16
Параметр Endianness формата : Big
Идентификатор кодека : A_DTS
Продолжительность : 1 ч. 31 м.
Вид битрейта : Постоянный
Битрейт : 1509 Кбит/сек
Каналы : 6 каналов
Расположение каналов : Front: L C R, Side: L R, LFE
Частота : 48,0 КГц
Частота кадров : 93,750 кадра/сек (512 spf)
Битовая глубина : 16 бит
Метод сжатия : С потерями
Размер потока : 991 Мбайт (14%)
Язык : English
Default : Нет
Forced : Нет

Текст
Идентификатор : 4
Формат : UTF-8
Идентификатор кодека : S_TEXT/UTF8
Идентификатор кодека/Информация : UTF-8 Plain Text
Язык : English
Default : Нет
Forced : Нет


_________________
Проголосуй за трекер Открытый торрент трекер - RUS-MEDIA.ORG

Проголосуй Открытый торрент трекер - RUS-MEDIA.ORG


Вернуться к началу
 Профиль Отправить личное сообщение  
 
   Похожие торренты   Автор   Торрент   Размер 
В этой теме нет новых непрочитанных сообщений. Корпорация «Страх» / Fear, Inc. [ужасы, триллер, комедия, 2016] WEB-DLRip, Avo

salma3

438 | 120

1.27 ГБ

В этой теме нет новых непрочитанных сообщений. Обнаженный страх / Naked Fear [ужасы, триллер, 2007] BDRip 1080p, Mvo

salma3

47 | 9

8.22 ГБ

В этой теме нет новых непрочитанных сообщений. Страх / Fear [Триллер, ужасы, драма, 1996] BDRemux 1080p, Dub

salma3

5 | 2

22.95 ГБ

В этой теме нет новых непрочитанных сообщений. Страх в ночи / Fear in the Night [ужасы, триллер, 1972] BDRemux 1080p, Avo

salma3

0 | 0

21.61 ГБ

В этой теме нет новых непрочитанных сообщений. Страх темноты / The Fear of Darkness [триллер, 2015] BDRip 1080p, Dub [iTunes]

salma3

361 | 127

6.78 ГБ

В этой теме нет новых непрочитанных сообщений. Страх и ненависть в Лас-Вегасе / Fear and Loathing in Las Vegas [Драма, Комедия, 1998] BDRip 1080p, Dub

salma3

0 | 1

12.9 ГБ

В этой теме нет новых непрочитанных сообщений. Страх темноты / The Fear of Darkness [ужасы, триллер, 2015] HDRip, Dub [iTunes]

salma3

4244 | 669

1.45 ГБ


Начать новую тему Ответить на тему  [ 1 сообщение ] 




Для Мосгорсуда, Роскомнадзора и рекламодателей:: mosgorsud-torrent[собачка]yandex.ru
cron