Торрент файл
скачать торрент магнет ссылка Добавлен: 29 июл 2017, 20:16
Размер: 5.28 ГБ
Сидеров: 47
Личеров: 11
Статус: (salma3)
Автор

СообщениеДобавлено: 29 июл 2017, 20:16 

Не в сети
Супермодератор
Аватара пользователя
Дата регистрации:
15 фев 2012, 16:44
Возраст: 28
Спасибо: 7290 / 2147
Сообщения: 70562
Год выхода: 2006
Жанр: драма
Режиссер: Тодд Филд

В ролях: Кейт Уинслет, Джеки Эрл Хейли, Дженнифер Коннелли, Патрик Уилсон, Ноа Эммерик, Грегг Эдельман, Филлис Соммервиль, Рэймонд Дж. Бэрри, Джейн Адамс, Тай Симпкинс

О фильме:
Идеальное течение жизни американского города: работа, дом, семья, дети. Идиллия? Однообразие? Скука? Интрига? Все меняется ночью: запретные развлечения - измены, жаркие сексуальные утехи, в то время как по улицам разгуливает маньяк, не вполне определившийся в своих предпочтениях...



Страна: США
Продолжительность: 02:16:47
Перевод #1: Профессиональный (дублированный) R5
Перевод #2: Авторский (одноголосый закадровый) М. Иванов
Перевод #3: Профессиональный (двухголосый закадровый) Новий канал

Файл
Формат: MKV
Качество: WEB-DL 720p [ iTunes (US) ]
Видео: 1280x534 at 23.976 fps, MPEG-4 AVC, ~4055 kbps avg
Aудио#1: Russian: 48 kHz, AC3, 3/2 (L,C,R,l,r) + LFE ch, ~448.00 kbps avg |Дубляж, R5|
Aудио#2: Russian: 48 kHz, AC3, 3/2 (L,C,R,l,r) + LFE ch, ~448.00 kbps avg |Одноголосый закадровый, М. Иванов|
Aудио#3: Ukrainian: 48 kHz, AC3, 2/0 (L,R) ch, ~192.00 kbps avg |Двухголосый закадровый, Новий канал|
Aудио#4: English: 48 kHz, AC3, 3/2 (L,C,R,l,r) + LFE ch, ~384.00 kbps avg
Субтитры: русские, английские
Релиз от:

General
Unique ID : 211030366136173911007767719908865194961 (0x9EC2F85A8C820B33AF2B6671E303BBD1)
Complete name : Little.Children.2006.720p.WEB-DL.2xRus.Ukr.Eng.mkv
Format : Matroska
Format version : Version 4 / Version 2
File size : 5.28 GiB
Duration : 2 h 16 min
Overall bit rate : 5 530 kb/s
Movie name : Little Children (2006) - Release for HDClub by vlaluk
Encoded date : UTC 2016-12-26 21:54:59
Writing application : mkvmerge v9.6.0 ('Slave To Your Mind') 64bit
Writing library : libebml v1.3.4 + libmatroska v1.4.5

Video
ID : 1
Format : AVC
Format/Info : Advanced Video Codec
Format profile : Main@L3.1
Format settings, CABAC : No
Format settings, ReFrames : 2 frames
Codec ID : V_MPEG4/ISO/AVC
Duration : 2 h 16 min
Bit rate : 4 055 kb/s
Width : 1 280 pixels
Height : 534 pixels
Display aspect ratio : 2.40:1
Frame rate mode : Constant
Frame rate : 23.976 (23976/1000) FPS
Color space : YUV
Chroma subsampling : 4:2:0
Bit depth : 8 bits
Scan type : Progressive
Bits/(Pixel*Frame) : 0.247
Stream size : 3.87 GiB (73%)
Title : Little Children (2006) - Release for HDClub by vlaluk
Language : English
Default : Yes
Forced : No
Color range : Limited
Color primaries : BT.709
Transfer characteristics : BT.709
Matrix coefficients : BT.709

Audio #1
ID : 2
Format : AC-3
Format/Info : Audio Coding 3
Format settings, Endianness : Big
Codec ID : A_AC3
Duration : 2 h 16 min
Bit rate mode : Constant
Bit rate : 448 kb/s
Channel(s) : 6 channels
Channel positions : Front: L C R, Side: L R, LFE
Sampling rate : 48.0 kHz
Frame rate : 31.250 FPS (1536 spf)
Bit depth : 16 bits
Compression mode : Lossy
Stream size : 438 MiB (8%)
Title : DD 5.1 @ 448 kbps @ Дубляж, R5
Language : Russian
Service kind : Complete Main
Default : Yes
Forced : No

Audio #2
ID : 3
Format : AC-3
Format/Info : Audio Coding 3
Format settings, Endianness : Big
Codec ID : A_AC3
Duration : 2 h 16 min
Bit rate mode : Constant
Bit rate : 448 kb/s
Channel(s) : 6 channels
Channel positions : Front: L C R, Side: L R, LFE
Sampling rate : 48.0 kHz
Frame rate : 31.250 FPS (1536 spf)
Bit depth : 16 bits
Compression mode : Lossy
Stream size : 438 MiB (8%)
Title : DD 5.1 @ 448 kbps @ Одноголосый закадровый, М. Иванов
Language : Russian
Service kind : Complete Main
Default : No
Forced : No

Audio #3
ID : 4
Format : AC-3
Format/Info : Audio Coding 3
Format settings, Endianness : Big
Codec ID : A_AC3
Duration : 2 h 16 min
Bit rate mode : Constant
Bit rate : 192 kb/s
Channel(s) : 2 channels
Channel positions : Front: L R
Sampling rate : 48.0 kHz
Frame rate : 31.250 FPS (1536 spf)
Bit depth : 16 bits
Compression mode : Lossy
Stream size : 188 MiB (3%)
Title : DD 2.0 @ 192 kbps @ Двухголосый закадровый
Language : Ukrainian
Service kind : Complete Main
Default : No
Forced : No

Audio #4
ID : 5
Format : AC-3
Format/Info : Audio Coding 3
Format settings, Endianness : Big
Codec ID : A_AC3
Duration : 2 h 16 min
Bit rate mode : Constant
Bit rate : 384 kb/s
Channel(s) : 6 channels
Channel positions : Front: L C R, Side: L R, LFE
Sampling rate : 48.0 kHz
Frame rate : 31.250 FPS (1536 spf)
Bit depth : 16 bits
Compression mode : Lossy
Stream size : 376 MiB (7%)
Title : DD 5.1 @ 384 kbps
Language : English
Service kind : Complete Main
Default : No
Forced : No

Text #1
ID : 6
Format : UTF-8
Codec ID : S_TEXT/UTF8
Codec ID/Info : UTF-8 Plain Text
Duration : 2 h 16 min
Bit rate : 95 b/s
Count of elements : 1796
Stream size : 95.3 KiB (0%)
Title : Russian @ SRT
Language : Russian
Default : No
Forced : No

Text #2
ID : 7
Format : UTF-8
Codec ID : S_TEXT/UTF8
Codec ID/Info : UTF-8 Plain Text
Duration : 2 h 9 min
Bit rate : 58 b/s
Count of elements : 1781
Stream size : 55.8 KiB (0%)
Title : English @ SRT
Language : English
Default : No
Forced : No

Menu
00:00:00.000 : en:Main Titles/Sarah
00:06:11.000 : en:The Prom King
00:09:49.000 : en:The Bet
00:17:23.000 : en:Profound Disorientation
00:20:26.000 : en:The Committee
00:26:13.000 : en:Richard
00:32:19.000 : en:Evening Fitness Walk
00:35:11.000 : en:The Town Pool
00:44:51.000 : en:Cooling Off
00:50:42.000 : en:Scattered Showers
00:55:33.000 : en:May and Ronnie
00:59:57.000 : en:The Attic
01:02:06.000 : en:Riding with Larry
01:11:47.000 : en:Flaubert
01:21:14.000 : en:The Test
01:25:39.000 : en:The Date
01:31:48.000 : en:Coming Home
01:35:16.000 : en:Lucy's Mom
01:41:30.000 : en:The Big Game
01:47:26.000 : en:Save the Children
01:52:37.000 : en:Ronnie Comes Home
01:57:39.000 : en:Running Away
02:10:41.000 : en:End Credits


_________________
Проголосуй за трекер Открытый торрент трекер - RUS-MEDIA.ORG

Проголосуй Открытый торрент трекер - RUS-MEDIA.ORG


Вернуться к началу
 Профиль Отправить личное сообщение  
 
   Похожие торренты   Автор   Торрент   Размер 
В этой теме нет новых непрочитанных сообщений. Дети тишины / Дети меньшего бога / Children of a Lesser God [драма, мелодрама, 1986] WEBRip 1080p, Dvo

salma3

11 | 9

12.31 ГБ

В этой теме нет новых непрочитанных сообщений. Дети революции / Children of the Revolution [драма, комедия, 1996] DVDRip, Mvo

salma3

0 | 0

1.37 ГБ

В этой теме нет новых непрочитанных сообщений. Дети небес / Bacheha-Ye Aseman / The Children of Heaven [драма, семейный, 1997] HDRip, Mvo

salma3

79 | 11

1.44 ГБ

В этой теме нет новых непрочитанных сообщений. Дети кукурузы / Children of the Corn [ужасы, 1984] BDRip 1080p, Mvo

salma3

10 | 3

11.07 ГБ

В этой теме нет новых непрочитанных сообщений. Дети кукурузы: Беглянка / Children of the Corn: Runaway [ужасы, триллер, 2018] DVDRip, Avo

salma3

71 | 8

1.17 ГБ

В этой теме нет новых непрочитанных сообщений. Дети кукурузы 4: Сбор урожая / Children of the Corn: The Gathering [ужасы, триллер, 1996] BDRip 1080p, Dvo

salma3

5 | 3

8.13 ГБ

В этой теме нет новых непрочитанных сообщений. Дети кукурузы 5: Поля страха / Children of the Corn V: Fields of Terror [ужасы, триллер, 1998] BDRip 1080p, Mvo

salma3

10 | 7

8.19 ГБ


Начать новую тему Ответить на тему  [ 1 сообщение ] 




Для Мосгорсуда, Роскомнадзора и рекламодателей:: mosgorsud-torrent[собачка]yandex.ru
cron