Торрент файл
скачать торрент магнет ссылка Добавлен: 24 июл 2017, 12:21
Размер: 2.85 ГБ
Сидеров: 726
Личеров: 78
Статус: (salma3)
Автор

СообщениеДобавлено: 24 июл 2017, 12:21 

Не в сети
Супермодератор
Аватара пользователя
Дата регистрации:
15 фев 2012, 16:44
Возраст: 28
Спасибо: 6659 / 2146
Сообщения: 46021
Год выхода: 2017
Жанр: боевик, криминал, приключения
Режиссер: Саймон Уэст

В ролях: Элиза Душку, Роджер Мур, Энрике Мурсиано, Сэмми Ханратти, Грег Гранберг, Томас Кречман, Яни Гельман, Кирсти Митчелл, Адам Рэйнер, Беатрис Розен

О фильме:
Отчаявшийся богач просит вора международного класса — Саймона Тамплиера по прозвищу Святой — отыскать похищенную дочь. Саймону предстоит не только скрываться от полиции, но и столкнуться с опасным противником из своего прошлого.



Страна: США
Продолжительность: 01:32:05
Перевод: любительский [многоголосный, закадровый] [Синема УС]

Файл
Кодек: H.264
Качество: WEB-DL 720p
Видео: AVC, 1280x720 (16:9), 23.976 fps ~ 3955 Kbps
Звук: AC3, 48 KHz 2 ch ~ 384 Kb/s

Семпл

Общее
Уникальный идентификатор : 230479162052540238585763569413905263795 (0xAD64AC0694E0C40BBEE4ECC5D5712CB3)
Полное имя : Q:TorFThe.Saint.2017.WEB-DL.720p.mkv
Формат : Matroska
Версия формата : Version 2
Размер файла : 2,85 Гбайт
Продолжительность : 1 ч. 32 м.
Режим общего битрейта : Переменный
Общий поток : 4426 Кбит/сек
Дата кодирования : UTC 2017-07-22 16:37:21
Программа кодирования : mkvmerge v5.4.0 ('Piper') built on Mar 10 2012 13:34:39
Библиотека кодирования : libebml v1.2.3 + libmatroska v1.3.0
DURATION : 01:32:36.832000000
NUMBER_OF_FRAMES : 173651
NUMBER_OF_BYTES : 266727936
_STATISTICS_WRITING_APP : mkvmerge v8.3.0 ('Over the Horizon') 64bit
_STATISTICS_WRITING_DATE_UTC : 2017-07-15 13:13:03
_STATISTICS_TAGS : BPS DURATION NUMBER_OF_FRAMES NUMBER_OF_BYTES
Видео
Идентификатор : 1
Формат : AVC
Формат/Информация : Advanced Video Codec
Профиль формата : High@L4.1
Параметр CABAC формата : Да
Параметр ReFrames формата : 9 кадров
Идентификатор кодека : V_MPEG4/ISO/AVC
Продолжительность : 1 ч. 32 м.
Вид битрейта : Переменный
Битрейт : 3954 Кбит/сек
Максимальный битрейт : 4500 Кбит/сек
Ширина : 1280 пикселей
Высота : 720 пикселей
Соотношение сторон : 16:9
Частота кадров : 23,976 кадра/сек
Стандарт вещания : Component
Цветовое пространство : YUV
Субдискретизация насыщенности : 4:2:0
Битовая глубина : 8 бит
Тип развёртки : Прогрессивная
Бит/(Пиксели*Кадры) : 0.179
Размер потока : 2,54 Гбайт (89%)
Default : Да
Forced : Нет
Основные цвета : BT.709-5, BT.1361, IEC 61966-2-4, SMPTE RP177
Характеристики трансфера : BT.709-5, BT.1361
Коэффициенты матрицы : BT.709-5, BT.1361, IEC 61966-2-4 709, SMPTE RP177
Аудио
Идентификатор : 2
Формат : AC-3
Формат/Информация : Audio Coding 3
Расширение режима : CM (complete main)
Идентификатор кодека : A_AC3
Продолжительность : 1 ч. 32 м.
Вид битрейта : Постоянный
Битрейт : 384 Кбит/сек
Каналы : 2 канала
Расположение каналов : Front: L R
Частота : 48,0 КГц
Битовая глубина : 16 бит
Метод сжатия : С потерями
Задержка видео : 15 мс.
Размер потока : 253 Мбайт (9%)
Default : Да
Forced : Нет



_________________
Проголосуй за трекер Открытый торрент трекер - RUS-MEDIA.ORG

Проголосуй Открытый торрент трекер - RUS-MEDIA.ORG



реклама партнёра


Вернуться к началу
 Профиль Отправить личное сообщение  
 
   Похожие торренты   Автор   Торрент   Размер 
В этой теме нет новых непрочитанных сообщений. Святой / The Saint [боевик, криминал, приключения, 2017] WEB-DLRip 720p, Mvo

salma3

147 | 11

2.71 ГБ

В этой теме нет новых непрочитанных сообщений. Святой / The Saint [боевик, криминал, приключения, 2017] WEB-DLRip, Mvo

salma3

2571 | 236

1.37 ГБ

В этой теме нет новых непрочитанных сообщений. Святой / The Saint [боевик, криминал, приключения, 2017] WEB-DLRip, Mvo

salma3

261 | 14

1.37 ГБ

В этой теме нет новых непрочитанных сообщений. Святой / The Saint [боевик, приключения, мелодрама, 1997] WEB-DL 1080p, Dub

salma3

132 | 94

10.57 ГБ

В этой теме нет новых непрочитанных сообщений. Святой / The Saint [боевик, приключения, мелодрама, 1997] WEB-DLRip, Mvo [Карусель]

salma3

34 | 11

1.61 ГБ

В этой теме нет новых непрочитанных сообщений. Святой / The Saint [боевик, триллер, мелодрама, приключения, 1997] HDTVRip, Mvo [НТВ+]

salma3

64 | 4

1.46 ГБ

В этой теме нет новых непрочитанных сообщений. Святой / The Saint [боевик, триллер, мелодрама, 1997] WEB-DLRip-AVC, Mvo

salma3

77 | 13

1.64 ГБ


Начать новую тему Ответить на тему  [ 1 сообщение ] 




Для Мосгорсуда, Роскомнадзора и рекламодателей:: mosgorsud-torrent[собачка]yandex.ru