Торрент файл
скачать торрент магнет ссылка Добавлен: 22 июл 2017, 13:01
Размер: 16.6 ГБ
Сидеров: 10
Личеров: 4
Статус: (salma3)
Автор

СообщениеДобавлено: 22 июл 2017, 13:01 

Не в сети
Супермодератор
Аватара пользователя
Дата регистрации:
15 фев 2012, 16:44
Возраст: 28
Спасибо: 7165 / 2147
Сообщения: 62216
Год выпуска: 1986
Жанр: комедия
Режиссер: Джеф Кэнью

В ролях: Берт Ланкастер, Кирк Дуглас, Чарльз Дёрнинг, Алексис Смит, Дэна Карви, Дарлэнн Флюгел, Илай Уоллак, Монти Эш, Билли Барти, Симми Боу

Описание:
Два грабителя, только что вышедших из тюрьмы после 30 лет заключения, Гарри и Арчи попадают в новый Лос-Анджелес, совершенно им не знакомый. Попробовав несколько честных способов зарабатывания денег, они все-таки решают заняться тем, что получается у них лучше всего - воровством в поездах. И надо же такому случиться - они выходят на дело в том самом поезде, за ограбление которого их посадили 30 лет назад.



Страна: США
Продолжительность: 01:44:06
Перевод: Профессиональный (дублированный) РТР + Профессиональный (многоголосый, закадровый) Петербург - Пятый канал + Профессиональный (многоголосый, закадровый) ОРТ/iTunes Russia + Авторский (одноголосый, закадровый) А.Михалёв + Любительский (одноголосый, закадровый) А.Чуев
Субтитры: английские (full)

Качество: BDRip 1080p
Формат: MKV
Видео: AVC, 1920x820 (2.35:1), 20379 kbps, 23,976 fps, 0,540 bpp
Аудио №1: русский / AC3 / 2.0 / 48 kHz / 192 kbps / Дубляж, РТР
Аудио №2: русский / AC3 / 2.0 / 48 kHz / 192 kbps / Многоголосый закадровый, Петербург - Пятый канал
Аудио №3: русский / AC3 / 2.0 / 48 kHz / 192 kbps / Многоголосый закадровый, ОРТ/iTunes Russia
Аудио №4: русский / AC3 / 2.0 / 48 kHz / 192 kbps / Авторский, А.Михалёв
Аудио №5: русский / AC3 / 2.0 / 48 kHz / 192 kbps / Любительский, А.Чуев (по переводу Марины Полек)
Аудио №6: английский / DTS / 2.0 / 48 kHz / 1509 kbps / Original
Навигация по главам: есть


Релиз от:


x264 [info]: frame I:1074 Avg QP:17.06 size:250790
x264 [info]: frame P:26526 Avg QP:18.97 size:146322
x264 [info]: frame B:122141 Avg QP:21.08 size: 96172
General
Unique ID : 213210292572771125654866983099269322345 (0xA066CF066C1B110DB32DDA93A2CF1669)
Complete name : D:downloadTough Guys.1986.BDRip 1080р by schultz R.G.Resident.mkv
Format : Matroska
Format version : Version 4 / Version 2
File size : 16.6 GiB
Duration : 1 h 44 min
Overall bit rate : 22.8 Mb/s
Encoded date : UTC 2017-07-21 06:42:51
Writing application : mkvmerge v8.9.0 ('Father Daughter') 64bit
Writing library : libebml v1.3.3 + libmatroska v1.4.4
Video
ID : 1
Format : AVC
Format/Info : Advanced Video Codec
Format profile : High@L4.1
Format settings, CABAC : Yes
Format settings, ReFrames : 5 frames
Codec ID : V_MPEG4/ISO/AVC
Duration : 1 h 44 min
Bit rate : 20.4 Mb/s
Width : 1 920 pixels
Height : 820 pixels
Display aspect ratio : 2.35:1
Frame rate mode : Constant
Frame rate : 23.976 (23976/1000) FPS
Color space : YUV
Chroma subsampling : 4:2:0
Bit depth : 8 bits
Scan type : Progressive
Bits/(Pixel*Frame) : 0.540
Stream size : 14.8 GiB (89%)
Writing library : x264 core 146 r2538 121396c
Encoding settings : cabac=1 / ref=5 / deblock=1:-3:-3 / analyse=0x3:0x113 / me=umh / subme=11 / psy=1 / psy_rd=1.00:0.15 / mixed_ref=1 / me_range=48 / chroma_me=1 / trellis=2 / 8x8dct=1 / cqm=0 / deadzone=21,11 / fast_pskip=0 / chroma_qp_offset=-3 / threads=12 / lookahead_threads=3 / sliced_threads=0 / nr=0 / decimate=0 / interlaced=0 / bluray_compat=0 / constrained_intra=0 / bframes=10 / b_pyramid=2 / b_adapt=2 / b_bias=0 / direct=3 / weightb=1 / open_gop=0 / weightp=2 / keyint=240 / keyint_min=23 / scenecut=40 / intra_refresh=0 / rc_lookahead=40 / rc=2pass / mbtree=0 / bitrate=20379 / ratetol=1.0 / qcomp=0.60 / qpmin=0 / qpmax=69 / qpstep=4 / cplxblur=20.0 / qblur=0.5 / vbv_maxrate=50000 / vbv_bufsize=62500 / nal_hrd=none / filler=0 / ip_ratio=1.40 / pb_ratio=1.30 / aq=1:1.00
Language : English
Default : Yes
Forced : No
Color range : Limited
Color primaries : BT.709
Transfer characteristics : BT.709
Matrix coefficients : BT.709
Audio #1
ID : 2
Format : AC-3
Format/Info : Audio Coding 3
Mode extension : CM (complete main)
Format settings, Endianness : Big
Codec ID : A_AC3
Duration : 1 h 44 min
Bit rate mode : Constant
Bit rate : 192 kb/s
Channel(s) : 2 channels
Channel positions : Front: L R
Sampling rate : 48.0 kHz
Frame rate : 31.250 FPS (1536 spf)
Compression mode : Lossy
Stream size : 143 MiB (1%)
Title : Дубляж РТР
Language : Russian
Default : Yes
Forced : No
Audio #2
ID : 3
Format : AC-3
Format/Info : Audio Coding 3
Mode extension : CM (complete main)
Format settings, Endianness : Big
Codec ID : A_AC3
Duration : 1 h 44 min
Bit rate mode : Constant
Bit rate : 192 kb/s
Channel(s) : 2 channels
Channel positions : Front: L R
Sampling rate : 48.0 kHz
Frame rate : 31.250 FPS (1536 spf)
Compression mode : Lossy
Stream size : 143 MiB (1%)
Title : MVO Peterburg 5 канал
Language : Russian
Default : No
Forced : No
Audio #3
ID : 4
Format : AC-3
Format/Info : Audio Coding 3
Mode extension : CM (complete main)
Format settings, Endianness : Big
Codec ID : A_AC3
Duration : 1 h 44 min
Bit rate mode : Constant
Bit rate : 192 kb/s
Channel(s) : 2 channels
Channel positions : Front: L R
Sampling rate : 48.0 kHz
Frame rate : 31.250 FPS (1536 spf)
Compression mode : Lossy
Stream size : 143 MiB (1%)
Title : MVO OPT (iTunes Russia)
Language : Russian
Default : No
Forced : No
Audio #4
ID : 5
Format : AC-3
Format/Info : Audio Coding 3
Mode extension : CM (complete main)
Format settings, Endianness : Big
Codec ID : A_AC3
Duration : 1 h 44 min
Bit rate mode : Constant
Bit rate : 192 kb/s
Channel(s) : 2 channels
Channel positions : Front: L R
Sampling rate : 48.0 kHz
Frame rate : 31.250 FPS (1536 spf)
Compression mode : Lossy
Stream size : 143 MiB (1%)
Title : VO А.Михалев
Language : Russian
Default : No
Forced : No
Audio #5
ID : 6
Format : AC-3
Format/Info : Audio Coding 3
Mode extension : CM (complete main)
Format settings, Endianness : Big
Codec ID : A_AC3
Duration : 1 h 44 min
Bit rate mode : Constant
Bit rate : 192 kb/s
Channel(s) : 2 channels
Channel positions : Front: L R
Sampling rate : 48.0 kHz
Frame rate : 31.250 FPS (1536 spf)
Compression mode : Lossy
Stream size : 143 MiB (1%)
Title : VO А.Чуев
Language : Russian
Default : No
Forced : No
Audio #6
ID : 7
Format : DTS
Format/Info : Digital Theater Systems
Mode : 16
Format settings, Endianness : Big
Codec ID : A_DTS
Duration : 1 h 44 min
Bit rate mode : Constant
Bit rate : 1 509 kb/s
Channel(s) : 2 channels
Channel positions : Front: L R
Sampling rate : 48.0 kHz
Frame rate : 93.750 FPS (512 spf)
Bit depth : 16 bits
Compression mode : Lossy
Stream size : 1.10 GiB (7%)
Title : Original
Language : English
Default : No
Forced : No
Text
ID : 8
Format : UTF-8
Codec ID : S_TEXT/UTF8
Codec ID/Info : UTF-8 Plain Text
Duration : 1 h 36 min
Bit rate : 65 b/s
Count of elements : 1272
Stream size : 46.3 KiB (0%)
Title : full
Language : English
Default : No
Forced : No
Menu
00:00:00.000 : en:00:00:00.000
00:10:56.406 : en:00:10:56.406
00:24:40.354 : en:00:24:40.354
00:41:57.598 : en:00:41:57.598
00:57:59.476 : en:00:57:59.476
01:11:05.845 : en:01:11:05.845
01:22:17.891 : en:01:22:17.891
01:33:27.185 : en:01:33:27.185


_________________
Проголосуй за трекер Открытый торрент трекер - RUS-MEDIA.ORG

Проголосуй Открытый торрент трекер - RUS-MEDIA.ORG


Вернуться к началу
 Профиль Отправить личное сообщение  
 
   Похожие торренты   Автор   Торрент   Размер 
В этой теме нет новых непрочитанных сообщений. Крутые мужики / Tough Guys [комедия, 1986] BDRip-AVC, Dub

salma3

18 | 10

4.57 ГБ

В этой теме нет новых непрочитанных сообщений. Крутые парни / Крутые ребята / Крутые мужики / Tough Guys [криминал, комедия, 1986] WEB-DL 720p, Dub+Mvo+Sub

salma3

4 | 1

3.36 ГБ

В этой теме нет новых непрочитанных сообщений. Крутые мужики / Tough Guys [комедия, 1986] BDRip 720p, Dub

salma3

0 | 1

7.3 ГБ

В этой теме нет новых непрочитанных сообщений. Крутые парни / Tough Guys [комедия, 1986] WEB-DLRip, Dub

salma3

146 | 22

1.45 ГБ

В этой теме нет новых непрочитанных сообщений. Крутые ребята не танцуют / Tough Guys Don't Dance [триллер, драма, детектив, 1987] HDTV 1080i, Dvo

salma3

18 | 6

5.03 ГБ

В этой теме нет новых непрочитанных сообщений. Черные тигры / Хорошие парни носят черное / Крутые парни ходят в черном / Good Guys Wear Black [боевик, 1978] BDRip, Mvo

salma3

0 | 1

1.46 ГБ

В этой теме нет новых непрочитанных сообщений. Типа крутые легавые / Hot Fuzz [боевик, комедия, 2007] BDRip 1080p, Dub

salma3

0 | 0

12.77 ГБ


Начать новую тему Ответить на тему  [ 1 сообщение ] 




Для Мосгорсуда, Роскомнадзора и рекламодателей:: mosgorsud-torrent[собачка]yandex.ru
cron