Торрент файл
скачать торрент магнет ссылка Добавлен: 20 июл 2017, 10:41
Размер: 4.46 ГБ
Сидеров: 954
Личеров: 358
Статус: (salma3)
Автор

СообщениеДобавлено: 20 июл 2017, 10:41 

В сети
Супермодератор
Аватара пользователя
Дата регистрации:
15 фев 2012, 16:44
Возраст: 28
Спасибо: 6593 / 2145
Сообщения: 44208
Год выхода: 2017
Жанр: триллер, драма
Режиссер: Дениз Ди Нови

В ролях: Розарио Доусон, Кэтрин Хейгл, Джофф Стульц, Шерил Лэдд, Уитни Каммингс, Роберт Уиздом, Саймон Кассианидес, Джэйсон Блэр, Изабелла Кай Райс, Алекс Кихано

О фильме:
Тесса Конновер тяжело переживает развод с мужем Дэвидом. Он теперь счастливо помолвлен с Джулией Бэнкс, которая вторгается не только в дом, в котором они когда-то жили с Тессой, но и в жизнь их дочери Лили. Джулия, в своей новой роли жены и мачехи, отчаянно верит, что, наконец, встретила мужчину своей мечты, который поможет ей забыть ее беспокойное прошлое. Но зависть Тессы набирает обороты, и ничто не помешает ей превратить мечту Джулии в ее худший кошмар.



Страна: США
Продолжительность: 01:40:08
Перевод: Профессиональный (полное дублирование) [iTunes]

Файл
Кодек: x264
Качество: BDRip 720p
Видео: 1280х720 (16:9), 23,976 fps, AVC (H.264), High@L4.1, ~6000 Kbps avg, 0.272 bit/pixel
Звук: 48 kHz, AC3 Dolby Digital, 3/2 (L,C,R,l,r) + LFE ch, ~384 kbps
Субтитры: Русские, английские

General
Unique ID : 200578326295931465326372420729241450876 (0x96E5FB00CAD9A5E49F8A3B9FFE65B97C)
Complete name : J:СборкаНаваждение. - Unforgettable.2017.720p.BluRay.АС3.x264.iTunes.mkv
Format : Matroska
Format version : Version 4 / Version 2
File size : 4.46 GiB
Duration : 1 h 40 min
Overall bit rate mode : Variable
Overall bit rate : 6 376 kb/s
Encoded date : UTC 2017-07-19 16:54:16
Writing application : mkvmerge v7.3.0 ('Nouages') 64bit built on Oct 22 2014 18:53:34
Writing library : libebml v1.3.0 + libmatroska v1.4.1
Video #1
ID : 1
Format : AVC
Format/Info : Advanced Video Codec
Format profile : High@L4.1
Format settings, CABAC : Yes
Format settings, ReFrames : 8 frames
Codec ID : V_MPEG4/ISO/AVC
Duration : 1 h 40 min
Bit rate mode : Variable
Bit rate : 6 000 kb/s
Maximum bit rate : 62.5 Mb/s
Width : 1 280 pixels
Height : 720 pixels
Display aspect ratio : 16:9
Frame rate mode : Constant
Frame rate : 23.976 (24000/1001) FPS
Color space : YUV
Chroma subsampling : 4:2:0
Bit depth : 8 bits
Scan type : Progressive
Bits/(Pixel*Frame) : 0.272
Stream size : 4.19 GiB (94%)
Writing library : x264 core 142 r2431+42 c69a006 tMod [8-bit@all X86_64]
Encoding settings : cabac=1 / ref=9 / deblock=1:-3:-3 / analyse=0x3:0x133 / me=umh / subme=11 / psy=1 / fade_compensate=0.00 / psy_rd=1.00:1.00 / mixed_ref=1 / me_range=48 / chroma_me=1 / trellis=2 / 8x8dct=1 / cqm=0 / deadzone=21,11 / fast_pskip=0 / chroma_qp_offset=-4 / threads=16 / lookahead_threads=2 / sliced_threads=0 / nr=0 / decimate=0 / interlaced=0 / bluray_compat=0 / constrained_intra=0 / fgo=0 / bframes=8 / b_pyramid=1 / b_adapt=2 / b_bias=0 / direct=3 / weightb=1 / open_gop=0 / weightp=2 / keyint=240 / keyint_min=23 / scenecut=40 / intra_refresh=0 / rc_lookahead=150 / rc=2pass / mbtree=0 / bitrate=6000 / ratetol=1.0 / qcomp=0.70 / qpmin=0:0:0 / qpmax=69:69:69 / qpstep=4 / cplxblur=20.0 / qblur=0.5 / vbv_maxrate=62500 / vbv_bufsize=78125 / nal_hrd=vbr / filler=0 / ip_ratio=1.30 / pb_ratio=1.20 / aq=2:0.80 / aq-sensitivity=10.00 / aq-factor=1.00:1.00:1.00 / aq2=0 / aq3=0
Default : Yes
Forced : No
Color range : Limited
Color primaries : BT.709
Transfer characteristics : BT.709
Matrix coefficients : BT.709
Audio #2
ID : 2
Format : AC-3
Format/Info : Audio Coding 3
Mode extension : CM (complete main)
Format settings, Endianness : Big
Codec ID : A_AC3
Duration : 1 h 40 min
Bit rate mode : Constant
Bit rate : 384 kb/s
Channel(s) : 6 channels
Channel positions : Front: L C R, Side: L R, LFE
Sampling rate : 48.0 kHz
Frame rate : 31.250 FPS (1536 spf)
Bit depth : 16 bits
Compression mode : Lossy
Stream size : 275 MiB (6%)
Title : iTunes
Language : Russian
Default : Yes
Forced : No
Text #3
ID : 3
Format : UTF-8
Codec ID : S_TEXT/UTF8
Codec ID/Info : UTF-8 Plain Text
Duration : 1 h 34 min
Bit rate : 5 b/s
Count of elements : 66
Stream size : 3.48 KiB (0%)
Title : Forced
Language : Russian
Default : Yes
Forced : No
Text #4
ID : 4
Format : UTF-8
Codec ID : S_TEXT/UTF8
Codec ID/Info : UTF-8 Plain Text
Duration : 1 h 39 min
Bit rate : 75 b/s
Count of elements : 1196
Stream size : 55.0 KiB (0%)
Title : Full
Language : Russian
Default : No
Forced : No
Text #5
ID : 5
Format : UTF-8
Codec ID : S_TEXT/UTF8
Codec ID/Info : UTF-8 Plain Text
Duration : 1 h 39 min
Bit rate : 49 b/s
Count of elements : 1320
Stream size : 35.7 KiB (0%)
Title : Full (SDH)
Language : English
Default : No
Forced : No


_________________
Проголосуй за трекер Открытый торрент трекер - RUS-MEDIA.ORG

Проголосуй Открытый торрент трекер - RUS-MEDIA.ORG



реклама партнёра


Вернуться к началу
 Профиль Отправить личное сообщение  
 
   Похожие торренты   Автор   Торрент   Размер 
В этой теме нет новых непрочитанных сообщений. Наваждение / Unforgettable [триллер, драма, 2017] BDRip, Dub [iTunes]

salma3

308 | 71

1.41 ГБ

В этой теме нет новых непрочитанных сообщений. Наваждение / Unforgettable [триллер, драма, 2017] BDRip-AVC, Dub [iTunes]

salma3

477 | 114

1.46 ГБ

В этой теме нет новых непрочитанных сообщений. Наваждение / Unforgettable [триллер, драма, 2017] BDRip 1080p, Dub [Лицензия]

salma3

85 | 28

8.49 ГБ

В этой теме нет новых непрочитанных сообщений. Наваждение / Obsession [триллер, драма, детектив, 1976] BDRip 720p, Dub+Mvo+Sub

salma3

57 | 2

3.82 ГБ

В этой теме нет новых непрочитанных сообщений. Незабываемое / Unforgettable [Фантастика, триллер, драма, детектив, 1996] BDRip 720p, Mvo

salma3

26 | 6

7.62 ГБ

В этой теме нет новых непрочитанных сообщений. Над глубиной: Хроника выживания / Cage Dive [Триллер, ужасы, драма, 2017] BDRip 720p, Dub [iTunes]

salma3

0 | 0

4.1 ГБ

В этой теме нет новых непрочитанных сообщений. Хранилище / The Vault [Триллер, ужасы, 2017] BDRip 720p, Mvo [iTunes]

salma3

213 | 24

4.62 ГБ


Начать новую тему Ответить на тему  [ 1 сообщение ] 




Для Мосгорсуда, Роскомнадзора и рекламодателей:: mosgorsud-torrent[собачка]yandex.ru