Торрент файл
скачать торрент магнет ссылка Добавлен: 14 июл 2017, 02:58
Размер: 4.35 ГБ
Сидеров: 38
Личеров: 12
Статус: (salma3)
Автор

СообщениеДобавлено: 14 июл 2017, 02:58 

В сети
Супермодератор
Аватара пользователя
Дата регистрации:
15 фев 2012, 16:44
Возраст: 28
Спасибо: 6593 / 2145
Сообщения: 44208
Год выпуска: 2008
Страна: США, Канада
Жанр: фантастика, фэнтези, приключения
Продолжительность: 01:38:35
Перевод 1: Профессиональный (многоголосый закадровый) AXN SciFi
Перевод 2: Профессиональный (многоголосый закадровый) LostFilm
Перевод 3: Профессиональный (многоголосый закадровый) R5
Перевод 4: Профессиональный (многоголосый закадровый) ТВ - 3
Режиссер: Мартин Вуд

В ролях: Бен Браудер, Аманда Таппинг, Кристофер Джадж, Майкл Шэнкс, Бо Бриджес, Клаудия Блэк, Ричард Дин Андерсон, Уильям Дивэйн, Клифф Саймон, Дон С. Дэвис

Описание: Пока команда SG-1 пытается уничтожить Ба'ала, последнего лорда гуаулдов, Тил’к и Вала загадочным образом исчезают. Картер, Дэниел и Митчелл понимают, что был нарушен временной континуум и программа по исследованию звездных врат стерлась из истории. Герои пробуют донести свою непростую мысль до властей, но на орбиту прибывают крейсеры гоаулдов во главе с Ба’алом, королевой Катеш и премьер-министром Тил’ком. Команде SG-1 нужно найти звездные врата и восстановить правильный ход вещей прежде, чем мир будет порабощен захватчиками.



Формат: MKV
Качество: BDRip 1080p
Видео: 1920x1080, 23.976 fps, ~4693 kbps
Audio #1: Russian, 48 kHz, AC3, 2 ch, 192 kbps
Audio #2: Russian, 48 kHz, AC3, 6 ch, 384 kbps
Audio #3: Russian, 48 kHz, AC3, 6 ch, 448 kbps
Audio #4: Russian, 48 kHz, AC3, 2 ch, 192 kbps
Audio #5: Russian, 48 kHz, AC3, 6 ch, 384 kbps
Субтитры: русские, английские

General
Format : Matroska
Format version : Version 4 / Version 2
File size : 4.35 GiB
Duration : 1 h 38 min
Overall bit rate : 6 317 kb/s
Encoded date : UTC 2017-07-12 20:13:25
Writing application : mkvmerge v12.0.0 ('Trust / Lust') 64bit
Writing library : libebml v1.3.4 + libmatroska v1.4.5
Video
ID : 1
Format : AVC
Format/Info : Advanced Video Codec
Format profile : High@L4
Format settings, CABAC : Yes
Format settings, RefFrames : 4 frames
Codec ID : V_MPEG4/ISO/AVC
Duration : 1 h 38 min
Bit rate : 4 693 kb/s
Width : 1 920 pixels
Height : 1 080 pixels
Display aspect ratio : 16:9
Frame rate mode : Constant
Frame rate : 23.976 (24000/1001) FPS
Color space : YUV
Chroma subsampling : 4:2:0
Bit depth : 8 bits
Scan type : Progressive
Bits/(Pixel*Frame) : 0.094
Stream size : 3.23 GiB (74%)
Writing library : x264 core 152 r2851M ba24899
Encoding settings : cabac=1 / ref=3 / deblock=1:-3:-3 / analyse=0x3:0x113 / me=hex / subme=7 / psy=1 / psy_rd=1.00:0.00 / mixed_ref=1 / me_range=16 / chroma_me=1 / trellis=1 / 8x8dct=1 / cqm=0 / deadzone=21,11 / fast_pskip=1 / chroma_qp_offset=-2 / threads=9 / lookahead_threads=1 / sliced_threads=0 / nr=0 / decimate=1 / interlaced=0 / bluray_compat=0 / constrained_intra=0 / bframes=3 / b_pyramid=2 / b_adapt=1 / b_bias=0 / direct=1 / weightb=1 / open_gop=0 / weightp=2 / keyint=230 / keyint_min=23 / scenecut=40 / intra_refresh=0 / rc_lookahead=40 / rc=2pass / mbtree=1 / bitrate=4693 / ratetol=1.0 / qcomp=0.60 / qpmin=0 / qpmax=69 / qpstep=4 / cplxblur=20.0 / qblur=0.5 / ip_ratio=1.40 / aq=1:1.00
Default : Yes
Forced : No
Color range : Limited
Color primaries : BT.709
Transfer characteristics : BT.709
Matrix coefficients : BT.709
Audio #1
ID : 2
Format : AC-3
Format/Info : Audio Coding 3
Format settings, Endianness : Big
Codec ID : A_AC3
Duration : 1 h 38 min
Bit rate mode : Constant
Bit rate : 192 kb/s
Channel(s) : 2 channels
Channel positions : Front: L R
Sampling rate : 48.0 kHz
Frame rate : 31.250 FPS (1536 SPF)
Bit depth : 16 bits
Compression mode : Lossy
Stream size : 135 MiB (3%)
Language : Russian
Service kind : Complete Main
Default : Yes
Forced : No
Audio #2
ID : 3
Format : AC-3
Format/Info : Audio Coding 3
Format settings, Endianness : Big
Codec ID : A_AC3
Duration : 1 h 38 min
Bit rate mode : Constant
Bit rate : 384 kb/s
Channel(s) : 6 channels
Channel positions : Front: L C R, Side: L R, LFE
Sampling rate : 48.0 kHz
Frame rate : 31.250 FPS (1536 SPF)
Bit depth : 16 bits
Compression mode : Lossy
Stream size : 271 MiB (6%)
Language : Russian
Service kind : Complete Main
Default : No
Forced : No
Audio #3
ID : 4
Format : AC-3
Format/Info : Audio Coding 3
Format settings, Endianness : Big
Codec ID : A_AC3
Duration : 1 h 38 min
Bit rate mode : Constant
Bit rate : 448 kb/s
Channel(s) : 6 channels
Channel positions : Front: L C R, Side: L R, LFE
Sampling rate : 48.0 kHz
Frame rate : 31.250 FPS (1536 SPF)
Bit depth : 16 bits
Compression mode : Lossy
Stream size : 316 MiB (7%)
Language : Russian
Service kind : Complete Main
Default : No
Forced : No
Audio #4
ID : 5
Format : AC-3
Format/Info : Audio Coding 3
Format settings, Endianness : Big
Codec ID : A_AC3
Duration : 1 h 38 min
Bit rate mode : Constant
Bit rate : 192 kb/s
Channel(s) : 2 channels
Channel positions : Front: L R
Sampling rate : 48.0 kHz
Frame rate : 31.250 FPS (1536 SPF)
Bit depth : 16 bits
Compression mode : Lossy
Stream size : 135 MiB (3%)
Language : Russian
Service kind : Complete Main
Default : No
Forced : No
Audio #5
ID : 6
Format : AC-3
Format/Info : Audio Coding 3
Format settings, Endianness : Big
Codec ID : A_AC3
Duration : 1 h 38 min
Bit rate mode : Constant
Bit rate : 384 kb/s
Channel(s) : 6 channels
Channel positions : Front: L C R, Side: L R, LFE
Sampling rate : 48.0 kHz
Frame rate : 31.250 FPS (1536 SPF)
Bit depth : 16 bits
Compression mode : Lossy
Stream size : 271 MiB (6%)
Language : English
Service kind : Complete Main
Default : No
Forced : No
Text #1
ID : 7
Format : PGS
Muxing mode : zlib
Codec ID : S_HDMV/PGS
Codec ID/Info : Picture based subtitle format used on BDs/HD-DVDs
Duration : 1 h 33 min
Bit rate : 9 376 b/s
Count of elements : 9006
Stream size : 6.27 MiB (0%)
Language : Russian
Default : Yes
Forced : No
Text #2
ID : 8
Format : PGS
Muxing mode : zlib
Codec ID : S_HDMV/PGS
Codec ID/Info : Picture based subtitle format used on BDs/HD-DVDs
Duration : 1 h 33 min
Bit rate : 13.2 kb/s
Count of elements : 9472
Stream size : 8.75 MiB (0%)
Language : English
Default : No
Forced : No


_________________
Проголосуй за трекер Открытый торрент трекер - RUS-MEDIA.ORG

Проголосуй Открытый торрент трекер - RUS-MEDIA.ORG



реклама партнёра


Вернуться к началу
 Профиль Отправить личное сообщение  
 
   Похожие торренты   Автор   Торрент   Размер 
В этой теме нет новых непрочитанных сообщений. Звездные врата: Ковчег Истины / Stargate: The Ark of Truth [фантастика, фэнтези, приключения, 2008] BDRip 1080p, Mvo

salma3

176 | 34

8.8 ГБ

В этой теме нет новых непрочитанных сообщений. Звездные врата: Атлантида / Stargate: Atlantis [S04] [Фантастика, боевик, приключения, 2007-2008] BDRip 1080p, Mvo [ТВ3]

salma3

11 | 7

79.5 ГБ

В этой теме нет новых непрочитанных сообщений. Звездные врата / Stargate [фантастика, боевик, приключения, 1994] BDRip 720p, Mvo

salma3

34 | 3

6.52 ГБ

В этой теме нет новых непрочитанных сообщений. Звёздные Врата: Атлантида / Stargate: Atlantis [S01-05] [Фантастика, 2004-2009] WEB-DL 720p, Mvo

salma3

30 | 50

131.04 ГБ

В этой теме нет новых непрочитанных сообщений. Континуум / Continuum [S04] (Пэт Уильямс, Джон Кассар) [Фантастика, триллер, 2015] WEB-DL 1080p [NewStudio]

Dracon

164 | 144

11.09 ГБ

В этой теме нет новых непрочитанных сообщений. Континуум / Continuum [сезон 1-4] [Фантастика, триллер, 2012-2015] BDRip 1080, Mvo+Dvo+Sub

salma3

4 | 11

177.41 ГБ

В этой теме нет новых непрочитанных сообщений. Континуум / Continuum [S04] (Пэт Уильямс, Джон Кассар) [Фантастика, триллер, 2015] WEB-DL 720p [NewStudio]

Dracon

119 | 82

8.94 ГБ


Начать новую тему Ответить на тему  [ 1 сообщение ] 




Для Мосгорсуда, Роскомнадзора и рекламодателей:: mosgorsud-torrent[собачка]yandex.ru