Торрент файл
скачать торрент магнет ссылка Добавлен: 14 июл 2017, 02:56
Размер: 8.8 ГБ
Сидеров: 176
Личеров: 34
Статус: (salma3)
Автор

СообщениеДобавлено: 14 июл 2017, 02:56 

Не в сети
Супермодератор
Аватара пользователя
Дата регистрации:
15 фев 2012, 16:44
Возраст: 28
Спасибо: 6917 / 2147
Сообщения: 52694
Год выпуска: 2008
Страна: США, Канада
Жанр: фантастика, фэнтези, приключения
Продолжительность: 01:41:51
Перевод 1: Профессиональный (многоголосый закадровый) AXN SciFi
Перевод 2: Профессиональный (многоголосый закадровый) студия Kravec
Перевод 3: Профессиональный (многоголосый закадровый) ТВ-3
Режиссер: Роберт С. Купер

В ролях: Бен Браудер, Аманда Таппинг, Кристофер Джадж, Майкл Шэнкс, Бо Бриджес, Клаудия Блэк, Карри Грэм, Морена Баккарин, Тим Гини, Джулиан Сэндс

Описание: Команда SG-1 начинает поиски артефакта, Ковчега истины, способного нанести поражение армии противника. Вскоре герои узнают о существовании суперворот, сквозь которые Орайи хотят отправить на Землю свою армаду для ее полного уничтожения. Артефакт находится в родной галактике Орайев, и SG-1 отправляется в путь, чтобы предвосхитить атаку. Но у комитета по ассигнованиям есть собственные планы, и SG-1 оказываются в далекой галактике меж двух могущественных врагов.



Формат: MKV
Качество: BDRip 1080p
Видео: 1920x1080, 23.976 fps, ~10000 kbps
Audio #1: Russian, 48 kHz, AC3, 2 ch, 192 kbps
Audio #2: Russian, 48 kHz, AC3, 6 ch, 384 kbps
Audio #3: Russian, 48 kHz, AC3, 6 ch, 384 kbps
Audio #4: English, 48 kHz, AC3, 6 ch, 384 kbps
Формат субтитров: prerendered (Blu-ray/PGS/SUP)
Субтитры: русские, английские

General
Format : Matroska
Format version : Version 4 / Version 2
File size : 8.80 GiB
Duration : 1 h 41 min
Overall bit rate : 12.4 Mb/s
Encoded date : UTC 2017-07-12 20:15:09
Writing application : mkvmerge v12.0.0 ('Trust / Lust') 64bit
Writing library : libebml v1.3.4 + libmatroska v1.4.5
Video
ID : 1
Format : AVC
Format/Info : Advanced Video Codec
Format profile : High 10@L4
Format settings, CABAC : Yes
Format settings, RefFrames : 4 frames
Codec ID : V_MPEG4/ISO/AVC
Duration : 1 h 41 min
Bit rate : 11.0 Mb/s
Width : 1 920 pixels
Height : 1 080 pixels
Display aspect ratio : 16:9
Frame rate mode : Constant
Frame rate : 23.976 (24000/1001) FPS
Color space : YUV
Chroma subsampling : 4:2:0
Bit depth : 10 bits
Scan type : Progressive
Bits/(Pixel*Frame) : 0.221
Stream size : 7.82 GiB (89%)
Writing library : x264_10 - core 152 r2851 ba24899
Encoding settings : cabac=1 / ref=3 / deblock=1:-3:-3 / analyse=0x3:0x113 / me=hex / subme=7 / psy=1 / psy_rd=1.00:0.00 / mixed_ref=1 / me_range=16 / chroma_me=1 / trellis=1 / 8x8dct=1 / cqm=0 / deadzone=21,11 / fast_pskip=1 / chroma_qp_offset=-2 / threads=9 / lookahead_threads=1 / sliced_threads=0 / nr=0 / decimate=1 / interlaced=0 / bluray_compat=0 / constrained_intra=0 / bframes=3 / b_pyramid=2 / b_adapt=1 / b_bias=0 / direct=1 / weightb=1 / open_gop=0 / weightp=2 / keyint=230 / keyint_min=23 / scenecut=40 / intra_refresh=0 / rc_lookahead=40 / rc=2pass / mbtree=1 / bitrate=11000 / ratetol=1.0 / qcomp=0.60 / qpmin=0 / qpmax=69 / qpstep=4 / cplxblur=20.0 / qblur=0.5 / ip_ratio=1.40 / aq=1:1.00
Default : Yes
Forced : No
Color range : Limited
Color primaries : BT.709
Transfer characteristics : BT.709
Matrix coefficients : BT.709
Audio #1
ID : 2
Format : AC-3
Format/Info : Audio Coding 3
Format settings, Endianness : Big
Codec ID : A_AC3
Duration : 1 h 41 min
Bit rate mode : Constant
Bit rate : 192 kb/s
Channel(s) : 2 channels
Channel positions : Front: L R
Sampling rate : 48.0 kHz
Frame rate : 31.250 FPS (1536 SPF)
Bit depth : 16 bits
Compression mode : Lossy
Stream size : 140 MiB (2%)
Language : Russian
Service kind : Complete Main
Default : Yes
Forced : No
Audio #2
ID : 3
Format : AC-3
Format/Info : Audio Coding 3
Format settings, Endianness : Big
Codec ID : A_AC3
Duration : 1 h 41 min
Bit rate mode : Constant
Bit rate : 384 kb/s
Channel(s) : 6 channels
Channel positions : Front: L C R, Side: L R, LFE
Sampling rate : 48.0 kHz
Frame rate : 31.250 FPS (1536 SPF)
Bit depth : 16 bits
Compression mode : Lossy
Stream size : 280 MiB (3%)
Language : Russian
Service kind : Complete Main
Default : No
Forced : No
Audio #3
ID : 4
Format : AC-3
Format/Info : Audio Coding 3
Format settings, Endianness : Big
Codec ID : A_AC3
Duration : 1 h 41 min
Bit rate mode : Constant
Bit rate : 384 kb/s
Channel(s) : 6 channels
Channel positions : Front: L C R, Side: L R, LFE
Sampling rate : 48.0 kHz
Frame rate : 31.250 FPS (1536 SPF)
Bit depth : 16 bits
Compression mode : Lossy
Stream size : 280 MiB (3%)
Language : Russian
Service kind : Complete Main
Default : No
Forced : No
Audio #4
ID : 5
Format : AC-3
Format/Info : Audio Coding 3
Format settings, Endianness : Big
Codec ID : A_AC3
Duration : 1 h 41 min
Bit rate mode : Constant
Bit rate : 384 kb/s
Channel(s) : 6 channels
Channel positions : Front: L C R, Side: L R, LFE
Sampling rate : 48.0 kHz
Frame rate : 31.250 FPS (1536 SPF)
Bit depth : 16 bits
Compression mode : Lossy
Stream size : 280 MiB (3%)
Language : English
Service kind : Complete Main
Default : No
Forced : No
Text #1
ID : 6
Format : PGS
Muxing mode : zlib
Codec ID : S_HDMV/PGS
Codec ID/Info : Picture based subtitle format used on BDs/HD-DVDs
Duration : 1 h 35 min
Bit rate : 11.2 kb/s
Count of elements : 8976
Stream size : 7.66 MiB (0%)
Language : English
Default : Yes
Forced : No
Text #2
ID : 7
Format : PGS
Muxing mode : zlib
Codec ID : S_HDMV/PGS
Codec ID/Info : Picture based subtitle format used on BDs/HD-DVDs
Duration : 1 h 36 min
Bit rate : 8 692 b/s
Count of elements : 8933
Stream size : 6.03 MiB (0%)
Language : Russian
Default : No
Forced : No


_________________
Проголосуй за трекер Открытый торрент трекер - RUS-MEDIA.ORG

Проголосуй Открытый торрент трекер - RUS-MEDIA.ORG



реклама партнёра


Вернуться к началу
 Профиль Отправить личное сообщение  
 
   Похожие торренты   Автор   Торрент   Размер 
В этой теме нет новых непрочитанных сообщений. Звездные врата: Континуум / Stargate: Continuum [фантастика, фэнтези, приключения, 2008] BDRip 1080p, Mvo

salma3

38 | 12

4.35 ГБ

В этой теме нет новых непрочитанных сообщений. Звездные врата: Атлантида / Stargate: Atlantis [S04] [Фантастика, боевик, приключения, 2007-2008] BDRip 1080p, Mvo [ТВ3]

salma3

11 | 7

79.5 ГБ

В этой теме нет новых непрочитанных сообщений. Звездные врата / Stargate [фантастика, боевик, приключения, 1994] BDRip 720p, Mvo

salma3

34 | 3

6.52 ГБ

В этой теме нет новых непрочитанных сообщений. Звездные врата: Начало / Stargate Origins [01x01-03 из 10] [фантастика, фэнтези, боевик, 2018] WEBRip, Mvo [Coldfilm]

salma3

286 | 14

263.83 МБ

В этой теме нет новых непрочитанных сообщений. Звёздные Врата: Атлантида / Stargate: Atlantis [S01-05] [Фантастика, 2004-2009] WEB-DL 720p, Mvo

salma3

30 | 50

131.04 ГБ

В этой теме нет новых непрочитанных сообщений. Звёздные войны: Пробуждение силы / Star Wars: Episode VII - The Force Awakens [фантастика, фэнтези, боевик, приключения, 2015] BDRip 1080p, Dub [чистый звук]

salma3

1980 | 68

15.83 ГБ

В этой теме нет новых непрочитанных сообщений. Звёздные войны: Пробуждение силы / Star Wars: Episode VII - The Force Awakens ( Фантастика, Фэнтези, Боевик, Приключения, 2015) BDRip 1080p от Ash61 | 3D-Video | halfOU

marya111

509 | 88

15.34 ГБ


Начать новую тему Ответить на тему  [ 1 сообщение ] 




Для Мосгорсуда, Роскомнадзора и рекламодателей:: mosgorsud-torrent[собачка]yandex.ru
cron