Торрент файл
скачать торрент магнет ссылка Добавлен: 20 июл 2017, 10:37
Размер: 9.7 ГБ
Сидеров: 2409
Личеров: 454
Статус: (salma3)
Автор

СообщениеДобавлено: 13 июл 2017, 10:54 

В сети
Супермодератор
Аватара пользователя
Дата регистрации:
15 фев 2012, 16:44
Возраст: 29
Спасибо: 7339 / 2147
Сообщения: 75657
Год выпуска: 2017
Жанр: Комедия, криминал
Режиссер: Зак Брафф

В ролях: Джои Кинг, Морган Фримен, Энн-Маргрет, Майкл Кейн, Алан Аркин, Кристофер Ллойд, Питер Серафинович, Мэтт Диллон, Шиван Фэллон, Джон Ортис

О фильме:
Старые друзья Вилли, Джо и Эла, несмотря на свой пенсионный возраст, впервые в жизни решают свернуть с праведного пути, чтобы сохранить свои пенсионные накопления.



Страна: США
Студия: Metro-Goldwyn-Mayer (MGM), New Line Cinema, Warner Bros. Pictures
Продолжительность: 01:36:23
Перевод: Дублированный [Лицензия]

Файл
Качество: BDRip 1080p
Видео: 1920x800 at 23.976 fps, x264@L4.1, ~11900 kbps avg
Aудио#1: Russian: 48 kHz, AC3, 3/2 (L,C,R,l,r) + LFE ch, ~640 kbps avg |Дубляж, Blu-ray CEE|
Aудио#2: Ukrainian: 44.1 kHz, AAC, 2/0 (L,R) ch, ~126 kbps avg |Дубляж, iTunes Russia|
Aудио#3: English: 48 kHz, DTS, 3/2 (L,C,R,l,r) + LFE ch, ~1509 kbps avg
Субтитры: Russian (Forced, iTunes), Russian (iTunes), Ukrainian (Forced, iTunes)

***Сохранены оригинальные главы как на Blu-ray.
***Видеоряд - HDClub.

Общее
Уникальный идентификатор : 224494823606162403077781840084058955054 (0xA8E4215C47395059B58C1FDDA272DD2E)
Полное имя : Going.in.Style.2017.1080p.BluRay.Rus.Ukr.Eng.HDCLUB.mkv
Формат : Matroska
Версия формата : Version 2
Размер файла : 9,70 Гбайт
Продолжительность : 1 ч. 36 м.
Общий поток : 14,4 Мбит/сек
Название фильма : Going in Style (2017) - Release for HDCLUB
Дата кодирования : UTC 2017-07-19 10:29:36
Программа кодирования : mkvmerge v3.4.0 ('Rapunzel') built on May 15 2010 09:38:20
Библиотека кодирования : libebml v0.8.0 + libmatroska v0.9.0

Видео
Идентификатор : 1
Формат : AVC
Формат/Информация : Advanced Video Codec
Профиль формата : High@L4.1
Параметр CABAC формата : Да
Параметр ReFrames формата : 5 кадров
Идентификатор кодека : V_MPEG4/ISO/AVC
Продолжительность : 1 ч. 36 м.
Ширина : 1920 пикселей
Высота : 800 пикселей
Соотношение сторон : 2,40:1
Режим частоты кадров : Постоянный
Частота кадров : 23,976 кадра/сек
Цветовое пространство : YUV
Субдискретизация насыщенности : 4:2:0
Битовая глубина : 8 бит
Тип развёртки : Прогрессивная
Заголовок : Going in Style (2017) - Release for HDCLUB
Библиотека кодирования : x264 core 148 r2744 b97ae06
Настройки программы : cabac=1 / ref=5 / deblock=1:-3:-3 / analyse=0x3:0x133 / me=umh / subme=11 / psy=1 / psy_rd=1.00:0.00 / mixed_ref=1 / me_range=48 / chroma_me=1 / trellis=2 / 8x8dct=1 / cqm=0 / deadzone=21,11 / fast_pskip=0 / chroma_qp_offset=-2 / threads=18 / lookahead_threads=4 / sliced_threads=0 / nr=0 / decimate=1 / interlaced=0 / bluray_compat=0 / constrained_intra=0 / bframes=10 / b_pyramid=2 / b_adapt=2 / b_bias=0 / direct=1 / weightb=1 / open_gop=0 / weightp=2 / keyint=240 / keyint_min=23 / scenecut=40 / intra_refresh=0 / rc_lookahead=60 / rc=crf / mbtree=0 / crf=16.9 / qcomp=0.60 / qpmin=0 / qpmax=69 / qpstep=4 / vbv_maxrate=50000 / vbv_bufsize=62500 / crf_max=0.0 / nal_hrd=none / filler=0 / ip_ratio=1.35 / pb_ratio=1.25 / aq=3:0.80
Язык : English
Default : Да
Forced : Нет

Аудио #1
Идентификатор : 2
Формат : AC-3
Формат/Информация : Audio Coding 3
Расширение режима : CM (complete main)
Параметр Endianness формата : Big
Идентификатор кодека : A_AC3
Продолжительность : 1 ч. 36 м.
Вид битрейта : Постоянный
Битрейт : 640 Кбит/сек
Каналы : 6 каналов
Расположение каналов : Front: L C R, Side: L R, LFE
Частота : 48,0 КГц
Битовая глубина : 16 бит
Метод сжатия : С потерями
Размер потока : 441 Мбайт (4%)
Заголовок : AC3 5.1 @ 640 kbps - DUB, Blu-ray CEE
Язык : Russian
Default : Да
Forced : Нет

Аудио #2
Идентификатор : 3
Формат : AAC
Формат/Информация : Advanced Audio Codec
Профиль формата : HE-AAC / LC
Идентификатор кодека : A_AAC
Продолжительность : 1 ч. 36 м.
Каналы : 2 канала
Расположение каналов : Front: L R
Частота : 88,2 КГц / 44,1 КГц
Метод сжатия : С потерями
Заголовок : AAC 2.0 @ 126 kbps - DUB, iTunes
Язык : Ukrainian
Default : Нет
Forced : Нет

Аудио #3
Идентификатор : 4
Формат : DTS
Формат/Информация : Digital Theater Systems
Режим : 16
Параметр Endianness формата : Big
Идентификатор кодека : A_DTS
Продолжительность : 1 ч. 36 м.
Вид битрейта : Постоянный
Битрейт : 1509 Кбит/сек
Каналы : 6 каналов
Расположение каналов : Front: L C R, Side: L R, LFE
Частота : 48,0 КГц
Битовая глубина : 24 бит
Метод сжатия : С потерями
Размер потока : 1,02 Гбайт (10%)
Заголовок : DTS 5.1 @ 1536 kbps
Язык : English
Default : Нет
Forced : Нет

Текст #1
Идентификатор : 5
Формат : UTF-8
Идентификатор кодека : S_TEXT/UTF8
Идентификатор кодека/Информация : UTF-8 Plain Text
Заголовок : Forced, iTunes
Язык : Russian
Default : Да
Forced : Нет

Текст #2
Идентификатор : 6
Формат : UTF-8
Идентификатор кодека : S_TEXT/UTF8
Идентификатор кодека/Информация : UTF-8 Plain Text
Заголовок : iTunes
Язык : Russian
Default : Нет
Forced : Нет

Текст #3
Идентификатор : 7
Формат : UTF-8
Идентификатор кодека : S_TEXT/UTF8
Идентификатор кодека/Информация : UTF-8 Plain Text
Заголовок : Forced, iTunes
Язык : Ukrainian
Default : Нет
Forced : Нет

Меню
00:00:00.000 : en:1
00:10:03.353 : en:2
00:20:02.368 : en:3
00:28:28.624 : en:4
00:39:42.380 : en:5
00:50:58.389 : en:6
00:58:31.717 : en:7
01:09:50.311 : en:8
01:22:05.671 : en:9
01:30:31.176 : en:10


_________________
Проголосуй за трекер Открытый торрент трекер - RUS-MEDIA.ORG

Проголосуй Открытый торрент трекер - RUS-MEDIA.ORG


Вернуться к началу
 Профиль Отправить личное сообщение  
 
   Похожие торренты   Автор   Торрент   Размер 
В этой теме нет новых непрочитанных сообщений. Уйти красиво / Going in Style [Комедия, криминал, 2017] BDRip 720p, Dub [Лицензия]

salma3

1746 | 289

5.68 ГБ

В этой теме нет новых непрочитанных сообщений. Уйти красиво / Going in Style [Комедия, криминал, 2017] BDRemux 1080p, Dub [Лицензия]

salma3

0 | 0

26.91 ГБ

В этой теме нет новых непрочитанных сообщений. Уйти красиво / Going in Style [Комедия, криминал, 2017] Blu-ray, Dub [Лицензия]

salma3

48 | 41

31.84 ГБ

В этой теме нет новых непрочитанных сообщений. Уйти красиво / Going in Style [комедия, криминал, 2017] CamRip, Dub

salma3

1602 | 376

1.37 ГБ

В этой теме нет новых непрочитанных сообщений. Уйти красиво / Going in Style [Комедия, криминал, 2017] WEB-DLRip, Dub [iTunes]

salma3

13567 | 5057

1.46 ГБ

В этой теме нет новых непрочитанных сообщений. Уйти красиво / Going in Style [Комедия, криминал, 2017] WEB-DLRip, Dub [iTunes]

salma3

559 | 29

745.55 МБ

В этой теме нет новых непрочитанных сообщений. Уйти красиво / Going in Style [Комедия, криминал, 2017] WEB-DLRip-AVC, Dub [iTunes]

salma3

7487 | 748

1.81 ГБ


СообщениеДобавлено: 20 июл 2017, 10:38 

В сети
Супермодератор
Аватара пользователя
Дата регистрации:
15 фев 2012, 16:44
Возраст: 29
Спасибо: 7339 / 2147
Сообщения: 75657
salma3 писал(а):
Re: Уйти красиво / Going in Style [Комедия, криминал, 2017] BDRip 1080p, Dub [Лицензия]

_________________
Проголосуй за трекер Открытый торрент трекер - RUS-MEDIA.ORG

Проголосуй Открытый торрент трекер - RUS-MEDIA.ORG


Вернуться к началу
 Профиль Отправить личное сообщение  
 
Начать новую тему Ответить на тему  [ Сообщений: 2 ] 




Для Мосгорсуда, Роскомнадзора и рекламодателей:: mosgorsud-torrent[собачка]yandex.ru
cron