Торрент файл
скачать торрент магнет ссылка Добавлен: 10 июл 2017, 11:31
Размер: 7.52 ГБ
Сидеров: 8
Личеров: 2
Статус: (salma3)
Автор

СообщениеДобавлено: 10 июл 2017, 11:31 

Не в сети
Супермодератор
Аватара пользователя
Дата регистрации:
15 фев 2012, 16:44
Возраст: 29
Спасибо: 7377 / 2147
Сообщения: 75805
Год выхода: 2000
Жанр: ужасы, фэнтези, триллер
Режиссер: Роберт Земекис

В ролях: Мишель Пфайффер, Харрисон Форд, Дайана Скаруид, Венди Крюсон, Джеймс Римар, Миранда Отто, Джо Мортон, Эмбер Валлетта, Кэтрин Таун, Виктория Бидвелл

О фильме:
Ученый и преподаватель Норман Спенсер с женой Клэр остаются в одиночестве после того, как их дочь Кейтлин покидает дом и отправляется в колледж. Вскоре Клэр начинает казаться, что рассудок ее подводит: проливные дожди и звуки ссоры между новыми соседями настраивают ее на тревожный лад, а увидев, как сосед кладет в багажник машины свернутый ковер, она немедленно начинает думать о возможном преступлении. После этого Клэр начинают всюду мерещиться убийства, а однажды она видит самое настоящее привидение — юную Мэдисон Фрэнк, учившуюся в классе Нормана и пропавшую год назад. Несмотря на то, что Норман считает видения жены последствиями автомобильной аварии, в которую она когда-то попала, сама Клэр относится к ним куда серьезнее и в конце концов решает, что единственный способ вновь обрести покой — войти в контакт с духом Мэдисон. Когда Клэр удается наладить с ней связь и понять, почему девушка так настойчиво пыталась до нее «достучаться», вся жизнь супругов переворачивается верх дном.



Страна: США
Продолжительность: 02:09:59
Перевод: Профессиональный (дублированный) R5 + Авторский (одноголосый, закадровый) Ю.Медведев + Авторский (одноголосый, закадровый) Ю.Живов
Релиз:

Файл
Качество: BDRip 720p
Формат: Matroska
Видео: 1280x532 at 23.976 fps, x264@L4.1, ~5397 kbps avg
Aудио#1: Russian: 48 kHz, AC3, 3/2 (L,C,R,l,r) + LFE ch, ~448 kbps avg |Дубляж, R5|
Aудио#2: Russian: 48 kHz, AC3, 3/2 (L,C,R,l,r) + LFE ch, ~384 kbps avg |Авторский, Ю.Живов|
Аудио#3: Russian: 48 kHz, AC3, 3/2 (L,C,R,l,r) + LFE ch, ~384 kbps avg |Авторский, Ю.Медведев|
Аудио#4: English: 48 kHz, DTS, 3/2 (L,C,R,l,r) + LFE ch, ~1509 kbps avg
Субтитры: Russian, English
***Сохранены оригинальные главы как на Blu-ray.
***За исходник спасибо: Sergei7721.
Роберт Земекис снял этот фильм между съемками фильма «Изгой», так как Тому Хэнксу, исполнителю главной роли в фильме, было необходимо похудеть на 20 кг и отрастить свою шевелюру.
[*]Когда Норман кладет Клэр в ванну, наполняя ее водой, он говорит, что она холодная. Однако, когда Клэр пытается отключить воду при помощи душевой лейки, она поворачивает кран с горячей водой.
Общее
Уникальный идентификатор : 215794684446599575025633235519929781774 (0xA2588B61D4B18CE58E7C66CAF9B70E0E)
Полное имя : What.Lies.Beneath.2000.x264.BDRip.720p.BLUEBIRD.mkv
Формат : Matroska
Версия формата : Version 4 / Version 2
Размер файла : 7,52 Гбайт
Продолжительность : 2 ч. 10 м.
Общий поток : 8287 Кбит/сек
Название фильма : What.Lies.Beneath.2000.x264.BDRip.720p.BLUEBIRD
Дата кодирования : UTC 2017-07-08 22:06:19
Программа кодирования : mkvmerge v7.9.0 ('Birds') 64bit
Библиотека кодирования : libebml v1.3.1 + libmatroska v1.4.2
Видео
Идентификатор : 1
Формат : AVC
Формат/Информация : Advanced Video Codec
Профиль формата : High@L4.1
Параметр CABAC формата : Да
Параметр ReFrames формата : 11 кадров
Идентификатор кодека : V_MPEG4/ISO/AVC
Продолжительность : 2 ч. 10 м.
Битрейт : 5397 Кбит/сек
Ширина : 1280 пикселей
Высота : 532 пикселя
Соотношение сторон : 2,40:1
Режим частоты кадров : Постоянный
Частота кадров : 23,976 кадра/сек
Цветовое пространство : YUV
Субдискретизация насыщенности : 4:2:0
Битовая глубина : 8 бит
Тип развёртки : Прогрессивная
Бит/(Пиксели*Кадры) : 0.331
Размер потока : 4,90 Гбайт (65%)
Заголовок : What.Lies.Beneath.2000.x264.BDRip.720p.BLUEBIRD
Библиотека кодирования : x264 core 150 r2833 df79067
Настройки программы : cabac=1 / ref=11 / deblock=1:-3:-3 / analyse=0x3:0x133 / me=umh / subme=11 / psy=1 / psy_rd=1.05:0.10 / mixed_ref=1 / me_range=48 / chroma_me=1 / trellis=2 / 8x8dct=1 / cqm=0 / deadzone=21,11 / fast_pskip=0 / chroma_qp_offset=-3 / threads=12 / lookahead_threads=2 / sliced_threads=0 / nr=0 / decimate=0 / interlaced=0 / bluray_compat=0 / constrained_intra=0 / bframes=7 / b_pyramid=2 / b_adapt=2 / b_bias=0 / direct=3 / weightb=1 / open_gop=0 / weightp=2 / keyint=240 / keyint_min=23 / scenecut=40 / intra_refresh=0 / rc_lookahead=80 / rc=crf / mbtree=0 / crf=16.5 / qcomp=0.60 / qpmin=0 / qpmax=69 / qpstep=4 / vbv_maxrate=62500 / vbv_bufsize=78125 / crf_max=0.0 / nal_hrd=none / filler=0 / ip_ratio=1.30 / pb_ratio=1.20 / aq=1:0.80
Язык : English
Default : Да
Forced : Нет
Аудио #1
Идентификатор : 2
Формат : AC-3
Формат/Информация : Audio Coding 3
Расширение режима : CM (complete main)
Параметр Endianness формата : Big
Идентификатор кодека : A_AC3
Продолжительность : 2 ч. 10 м.
Вид битрейта : Постоянный
Битрейт : 448 Кбит/сек
Каналы : 6 каналов
Расположение каналов : Front: L C R, Side: L R, LFE
Частота : 48,0 КГц
Битовая глубина : 16 бит
Метод сжатия : С потерями
Размер потока : 417 Мбайт (5%)
Заголовок : Дублированный (R5)
Язык : Russian
Default : Да
Forced : Нет
Аудио #2
Идентификатор : 3
Формат : AC-3
Формат/Информация : Audio Coding 3
Расширение режима : CM (complete main)
Параметр Endianness формата : Big
Идентификатор кодека : A_AC3
Продолжительность : 2 ч. 10 м.
Вид битрейта : Постоянный
Битрейт : 384 Кбит/сек
Каналы : 6 каналов
Расположение каналов : Front: L C R, Side: L R, LFE
Частота : 48,0 КГц
Битовая глубина : 16 бит
Метод сжатия : С потерями
Размер потока : 357 Мбайт (5%)
Заголовок : Авторский одноголосый (Ю. Живов)
Язык : Russian
Default : Нет
Forced : Нет
Аудио #3
Идентификатор : 4
Формат : AC-3
Формат/Информация : Audio Coding 3
Расширение режима : CM (complete main)
Параметр Endianness формата : Big
Идентификатор кодека : A_AC3
Продолжительность : 2 ч. 10 м.
Вид битрейта : Постоянный
Битрейт : 384 Кбит/сек
Каналы : 6 каналов
Расположение каналов : Front: L C R, Side: L R, LFE
Частота : 48,0 КГц
Битовая глубина : 16 бит
Метод сжатия : С потерями
Размер потока : 357 Мбайт (5%)
Заголовок : Авторский одноголосый (Ю. Медведев)
Язык : Russian
Default : Нет
Forced : Нет
Аудио #4
Идентификатор : 5
Формат : DTS
Формат/Информация : Digital Theater Systems
Режим : 16
Параметр Endianness формата : Big
Идентификатор кодека : A_DTS
Продолжительность : 2 ч. 10 м.
Вид битрейта : Постоянный
Битрейт : 1509 Кбит/сек
Каналы : 6 каналов
Расположение каналов : Front: L C R, Side: L R, LFE
Частота : 48,0 КГц
Битовая глубина : 24 бит
Метод сжатия : С потерями
Размер потока : 1,37 Гбайт (18%)
Язык : English
Default : Нет
Forced : Нет
Текст #1
Идентификатор : 6
Формат : UTF-8
Идентификатор кодека : S_TEXT/UTF8
Идентификатор кодека/Информация : UTF-8 Plain Text
Заголовок : full
Язык : Russian
Default : Нет
Forced : Нет
Текст #2
Идентификатор : 7
Формат : UTF-8
Идентификатор кодека : S_TEXT/UTF8
Идентификатор кодека/Информация : UTF-8 Plain Text
Заголовок : full
Язык : English
Default : Нет
Forced : Нет
Меню
00:00:00.000 : en:00:00:00.000
00:16:12.958 : en:00:16:12.958
00:30:59.834 : en:00:30:59.834
00:43:50.625 : en:00:43:50.625
00:59:35.541 : en:00:59:35.541
01:16:48.582 : en:01:16:48.582
01:31:02.457 : en:01:31:02.457
01:51:19.667 : en:01:51:19.667
02:03:15.375 : en:02:03:15.375



_________________
Проголосуй за трекер Открытый торрент трекер - RUS-MEDIA.ORG

Проголосуй Открытый торрент трекер - RUS-MEDIA.ORG


Вернуться к началу
 Профиль Отправить личное сообщение  
 
   Похожие торренты   Автор   Торрент   Размер 
В этой теме нет новых непрочитанных сообщений. Что скрывает ложь / What Lies Beneath [ужасы, триллер, драма, детектив, 2000] BDRip, Dub

salma3

128 | 65

2.18 ГБ

В этой теме нет новых непрочитанных сообщений. Что скрывает ложь / What Lies Beneath [ужасы, триллер, драма, детектив, 2000] BDRip 1080p, Dub

salma3

0 | 0

11.76 ГБ

В этой теме нет новых непрочитанных сообщений. Что скрывает Лох-Несс / Beneath Loch Ness [ужасы, боевик, триллер, 2001] DVDRip, Dvo

salma3

0 | 1

1.37 ГБ

В этой теме нет новых непрочитанных сообщений. Что скрывает кожа / Where the Skin Lies [ужасы, триллер, 2017] WEBDLRip, Mvo

salma3

67 | 25

1.37 ГБ

В этой теме нет новых непрочитанных сообщений. Что скрывает ложь / Trespass [Триллер, драма, криминал, 2011] HDRip-AVC, Dub

salma3

11 | 3

746.29 МБ

В этой теме нет новых непрочитанных сообщений. Ложь в семье / Family of Lies [триллер, 2017] DVDRip, Mvo

salma3

157 | 32

1.37 ГБ

В этой теме нет новых непрочитанных сообщений. Секс, ложь и видео / Sex, Lies, and Videotape [Драма, 1989] BDRip 1080p, Mvo

salma3

0 | 3

9.4 ГБ


Начать новую тему Ответить на тему  [ 1 сообщение ] 




Для Мосгорсуда, Роскомнадзора и рекламодателей:: mosgorsud-torrent[собачка]yandex.ru
cron