Торрент файл
скачать торрент магнет ссылка Добавлен: 04 июл 2017, 03:55
Размер: 8.3 ГБ
Сидеров: 35
Личеров: 11
Статус: (salma3)
Автор

СообщениеДобавлено: 04 июл 2017, 03:55 

Не в сети
Супермодератор
Аватара пользователя
Дата регистрации:
15 фев 2012, 16:44
Возраст: 28
Спасибо: 7203 / 2147
Сообщения: 65002
Год выхода: 2004
Жанр: фантастика, боевик, драма
Режиссер: Брайан Хенсон

В ролях: Рэйли Хилл, Мелисса Яффер, Пол Годдард, Тэмми МакИнтош, Дэвид Франклин, Ребекка Риггс, Дункан Янг, Франческа Буллер, Хью Кияс-Бёрн, Джонатан Харди

О фильме:
Агрессивная Скарранская Империя начала полномасштабную галактическую войну. Продвигаясь от системы к системе, их боевые корабли нацелились на Союз Миротворцев. У Миротворцев осталась лишь одна надежда на землянина Джона Крайтона, вместе со своей женой-инопланетянкой и их еще не родившимся ребенком втянутого в эту галактику сквозь космическую воронку. Теперь для Крайтона, оказавшегося «не в том месте не в то время», настало время отблагодарить своих спасителей. Не такая уж легкая задача с учетом того, что ему нужно спасти целую расу, вступить в схватку с самыми злобными существами во Вселенной и создать новое оружие возмездия. И хотя Крайтон не начинал эту войну, закончить ее может только он…



Страна: США, Австралия
Продолжительность: 02:56:20
Перевод: Профессиональный (двухголосый, закадровый) R5 + Профессиональный (двухголосый, закадровый) Hallmark

Файл
Качество: BDRip 720p
Формат: Matroska
Видео: 1280x720 at 25.000 fps, x264@L4.1, ~5585 kbps avg
Аудио#1: Russian: 48 kHz, AC3 Dolby Digital, 3/2 (L,C,R,l,r) + LFE ch, ~448 kbps avg |Двухголосый закадровый, R5|
Аудио#2: Russian: 48 kHz, AC3 Dolby Digital, 2/0 (L,R) ch, ~192 kbps avg |Двухголосый закадровый, Hallmark|
Аудио#3: English: 48 kHz, AC3 Dolby Digital, 3/2 (L,C,R,l,r) + LFE ch, ~384 kbps avg
Субтитры: Russian, English
***Сохранены и подписаны оригинальные главы как на Blu-ray.
***Релиз - msltel.
Общее
Уникальный идентификатор : 204086006789759207378115660766971979668 (0x99898900F21E62E4952DEAF7DDD86794)
Полное имя : Галактическая война.2004.BDRip.720p by msltel.mkv
Формат : Matroska
Версия формата : Version 4 / Version 2
Размер файла : 8,30 Гбайт
Продолжительность : 2 ч. 56 м.
Общий поток : 6743 Кбит/сек
Название фильма : Rip by msltel
Дата кодирования : UTC 2017-04-18 11:00:24
Программа кодирования : mkvmerge v8.2.0 ('World of Adventure') 64bit
Библиотека кодирования : libebml v1.3.1 + libmatroska v1.4.2
Видео
Идентификатор : 1
Формат : AVC
Формат/Информация : Advanced Video Codec
Профиль формата : High@L4.1
Параметр CABAC формата : Да
Параметр ReFrames формата : 9 кадров
Идентификатор кодека : V_MPEG4/ISO/AVC
Продолжительность : 2 ч. 56 м.
Битрейт : 5585 Кбит/сек
Ширина : 1280 пикселей
Высота : 720 пикселей
Соотношение сторон : 16:9
Режим частоты кадров : Постоянный
Частота кадров : 25,000 кадров/сек
Цветовое пространство : YUV
Субдискретизация насыщенности : 4:2:0
Битовая глубина : 8 бит
Тип развёртки : Прогрессивная
Бит/(Пиксели*Кадры) : 0.242
Размер потока : 6,88 Гбайт (83%)
Библиотека кодирования : x264 core 146 r2538 121396c
Настройки программы : cabac=1 / ref=9 / deblock=1:-3:-2 / analyse=0x3:0x113 / me=umh / subme=11 / psy=1 / psy_rd=1.00:0.15 / mixed_ref=1 / me_range=32 / chroma_me=1 / trellis=2 / 8x8dct=1 / cqm=0 / deadzone=21,11 / fast_pskip=0 / chroma_qp_offset=-3 / threads=6 / lookahead_threads=1 / sliced_threads=0 / nr=0 / decimate=1 / interlaced=0 / bluray_compat=0 / constrained_intra=0 / bframes=8 / b_pyramid=2 / b_adapt=2 / b_bias=0 / direct=1 / weightb=1 / open_gop=0 / weightp=2 / keyint=250 / keyint_min=25 / scenecut=40 / intra_refresh=0 / rc_lookahead=40 / rc=crf / mbtree=0 / crf=18.4 / qcomp=0.60 / qpmin=0 / qpmax=69 / qpstep=4 / vbv_maxrate=62500 / vbv_bufsize=78125 / crf_max=0.0 / nal_hrd=none / filler=0 / ip_ratio=1.40 / pb_ratio=1.30 / aq=1:1.00
Язык : English
Default : Да
Forced : Нет
Аудио #1
Идентификатор : 2
Формат : AC-3
Формат/Информация : Audio Coding 3
Расширение режима : CM (complete main)
Параметр Endianness формата : Big
Идентификатор кодека : A_AC3
Продолжительность : 2 ч. 56 м.
Вид битрейта : Постоянный
Битрейт : 448 Кбит/сек
Каналы : 6 каналов
Расположение каналов : Front: L C R, Side: L R, LFE
Частота : 48,0 КГц
Битовая глубина : 16 бит
Метод сжатия : С потерями
Размер потока : 565 Мбайт (7%)
Заголовок : DVO (R5)
Язык : Russian
Default : Да
Forced : Нет
Аудио #2
Идентификатор : 3
Формат : AC-3
Формат/Информация : Audio Coding 3
Расширение режима : CM (complete main)
Параметр Endianness формата : Big
Идентификатор кодека : A_AC3
Продолжительность : 2 ч. 56 м.
Вид битрейта : Постоянный
Битрейт : 192 Кбит/сек
Каналы : 2 канала
Расположение каналов : Front: L R
Частота : 48,0 КГц
Битовая глубина : 16 бит
Метод сжатия : С потерями
Размер потока : 242 Мбайт (3%)
Заголовок : DVO (Hallmark)
Язык : Russian
Default : Нет
Forced : Нет
Аудио #3
Идентификатор : 4
Формат : AC-3
Формат/Информация : Audio Coding 3
Расширение режима : CM (complete main)
Параметр Endianness формата : Big
Идентификатор кодека : A_AC3
Продолжительность : 2 ч. 56 м.
Вид битрейта : Постоянный
Битрейт : 384 Кбит/сек
Каналы : 6 каналов
Расположение каналов : Front: L C R, Side: L R, LFE
Частота : 48,0 КГц
Битовая глубина : 16 бит
Метод сжатия : С потерями
Размер потока : 484 Мбайт (6%)
Заголовок : original
Язык : English
Default : Нет
Forced : Нет
Текст #1
Идентификатор : 5
Формат : UTF-8
Идентификатор кодека : S_TEXT/UTF8
Идентификатор кодека/Информация : UTF-8 Plain Text
Заголовок : русские
Язык : Russian
Default : Нет
Forced : Нет
Текст #2
Идентификатор : 6
Формат : UTF-8
Идентификатор кодека : S_TEXT/UTF8
Идентификатор кодека/Информация : UTF-8 Plain Text
Заголовок : английские
Язык : English
Default : Нет
Forced : Нет
Меню
00:00:00.000 : en:00:00:00.000
00:15:00.000 : en:00:15:00.000
00:30:00.000 : en:00:30:00.000
00:45:00.000 : en:00:45:00.000
01:00:00.000 : en:01:00:00.000
01:15:00.000 : en:01:15:00.000
01:28:10.000 : en:01:28:10.000
01:43:10.000 : en:01:43:10.000
01:58:10.000 : en:01:58:10.000
02:13:10.000 : en:02:13:10.000
02:28:10.000 : en:02:28:10.000
02:43:10.000 : en:02:43:10.000



_________________
Проголосуй за трекер Открытый торрент трекер - RUS-MEDIA.ORG

Проголосуй Открытый торрент трекер - RUS-MEDIA.ORG


Вернуться к началу
 Профиль Отправить личное сообщение  
 
   Похожие торренты   Автор   Торрент   Размер 
В этой теме нет новых непрочитанных сообщений. Война Дронов / Drone Wars [фантастика, боевик, триллер, 2016] HDRip, Mvo

salma3

2083 | 582

1.37 ГБ

В этой теме нет новых непрочитанных сообщений. Война Дронов / Drone Wars [Фантастика, боевик, триллер, 2016] ВDRip 720р, Mvo

salma3

139 | 33

3.37 ГБ

В этой теме нет новых непрочитанных сообщений. Звездные войны: Войны Клонов / Star Wars: The Clone Wars [Фантастика, приключения, 2008] BDRip 720p, Dub

salma3

0 | 0

3.75 ГБ

В этой теме нет новых непрочитанных сообщений. Последний друид: Войны гармов / Garm Wars: The Last Druid [фантастика, боевик, триллер, 2014] BDRip 720p, Dvo

salma3

284 | 24

3.56 ГБ

В этой теме нет новых непрочитанных сообщений. Звёздные войны: Последние джедаи / Star Wars: Episode VIII - The Last Jedi [фантастика, фэнтези, боевик, приключения, 2017] BDRip 720p, Dub

salma3

0 | 0

7.24 ГБ

В этой теме нет новых непрочитанных сообщений. Планета обезьян: Война / War for the Planet of the Apes [фантастика, боевик, триллер, 2017] BDRip 720p, Dub+Sub [Лицензия]

salma3

1 | 0

6.22 ГБ

В этой теме нет новых непрочитанных сообщений. Звездные войны: Последние джедаи / Star Wars: Episode VIII - The Last Jedi [Фантастика, фэнтези, боевик, 2017] BDRip 720p от ExKinoRay | iTunes

salma3

51 | 31

7.65 ГБ


Начать новую тему Ответить на тему  [ 1 сообщение ] 




Для Мосгорсуда, Роскомнадзора и рекламодателей:: mosgorsud-torrent[собачка]yandex.ru
cron