Торрент файл
скачать торрент магнет ссылка Добавлен: 01 июл 2017, 20:57
Размер: 4.37 ГБ
Сидеров: 32
Личеров: 15
Статус: (salma3)
Автор

СообщениеДобавлено: 01 июл 2017, 20:57 

Не в сети
Супермодератор
Аватара пользователя
Дата регистрации:
15 фев 2012, 16:44
Возраст: 28
Спасибо: 7205 / 2147
Сообщения: 65464
Год выхода: 2011
Жанр: драма, мелодрама
Режиссер: Френсис Лоуренс

В ролях: Роберт Паттинсон, Риз Уизерспун, Кристоф Вальц, Пол Шнайдер, Джим Нортон, Хэл Холбрук, Марк Повинелли, Ричард Брэйк, Стивен Тейлор, Кен Фори

О фильме: Времена Великой депрессии. Студент-ветеринар Якоб бросает учебу после того, как его родители погибают, и присоединяется к «Benzini Brothers», самому грандиозному цирковому шоу на Земле. Там он начинает работать ветеринаром, а заодно и влюбляется в прекрасную наездницу Марлену, которая, правда, замужем за Августом, харизматичным, но жестоким дрессировщиком.



Выпущено: Fox 2000 Pictures
Продолжительность: 02:00:30
Перевод: Дублированный

Файл
Кодек: x264
Качество: BDRip 1080p
Видео: 1920x816 (2,35:1), 23.976 fps, 4748 kbps
Звук: 48 kHz, AC-3, 6 ch, 448 kbps
Субтитры: Русские, Английские

сэмпл

Общее
Уникальный идентификатор : 176866264340438026616547970423337577705 (0x850F341640213DFCA233AA715954ECE9)
Полное имя : Water.for.Elephants.2011.BDRip.1080p.Rus.mkv
Формат : Matroska
Версия формата : Version 2
Размер файла : 4,37 Гбайт
Продолжительность : 2 ч. 0 м.
Общий поток : 5198 Кбит/сек
Дата кодирования : UTC 2011-09-08 23:51:13
Программа кодирования : mkvmerge v4.0.0 ('The Stars were mine') сборка от Jun 6 2010 16:18:42
Библиотека кодирования : libebml v1.0.0 + libmatroska v1.0.0

Видео
Идентификатор : 1
Формат : AVC
Формат/Информация : Advanced Video Codec
Профиль формата : High@L4.1
Параметр CABAC формата : Да
Параметр ReFrames формата : 5 кадров
Идентификатор кодека : V_MPEG4/ISO/AVC
Продолжительность : 2 ч. 0 м.
Битрейт : 4748 Кбит/сек
Ширина : 1920 пикселей
Высота : 816 пикселей
Соотношение сторон : 2,35:1
Частота кадров : 23,976 кадра/сек
Цветовое пространство : YUV
Субдискретизация насыщенности : 4:2:0
Битовая глубина : 8 бит
Тип развёртки : Прогрессивная
Бит/(Пиксели*Кадры) : 0.126
Размер потока : 3,91 Гбайт (89%)
Библиотека кодирования : x264 core 116 r2074 2641b9e
Настройки программы : cabac=1 / ref=5 / deblock=1:0:0 / analyse=0x3:0x133 / me=umh / subme=10 / psy=1 / psy_rd=1.00:0.10 / mixed_ref=1 / me_range=32 / chroma_me=1 / trellis=2 / 8x8dct=1 / cqm=0 / deadzone=21,11 / fast_pskip=0 / chroma_qp_offset=-3 / threads=12 / sliced_threads=0 / nr=0 / decimate=1 / interlaced=0 / bluray_compat=0 / constrained_intra=0 / bframes=5 / b_pyramid=2 / b_adapt=2 / b_bias=0 / direct=3 / weightb=1 / open_gop=0 / weightp=2 / keyint=250 / keyint_min=23 / scenecut=40 / intra_refresh=0 / rc_lookahead=60 / rc=2pass / mbtree=1 / bitrate=4748 / ratetol=1.0 / qcomp=0.60 / qpmin=0 / qpmax=69 / qpstep=4 / cplxblur=20.0 / qblur=0.5 / ip_ratio=1.40 / aq=1:1.00
Язык : English

Аудио
Идентификатор : 2
Формат : AC-3
Формат/Информация : Audio Coding 3
Расширение режима : CM (complete main)
Идентификатор кодека : A_AC3
Продолжительность : 2 ч. 0 м.
Вид битрейта : Постоянный
Битрейт : 448 Кбит/сек
Каналы : 6 каналов
Расположение каналов : Front: L C R, Side: L R, LFE
Частота : 48,0 КГц
Битовая глубина : 16 бит
Метод сжатия : С потерями
Размер потока : 386 Мбайт (9%)
Язык : Russian

Текст #1
Идентификатор : 3
Формат : UTF-8
Идентификатор кодека : S_TEXT/UTF8
Идентификатор кодека/Информация : UTF-8 Plain Text
Язык : Russian

Текст #2
Идентификатор : 4
Формат : UTF-8
Идентификатор кодека : S_TEXT/UTF8
Идентификатор кодека/Информация : UTF-8 Plain Text
Язык : English

Меню
00:00:00.000 : :Chapter 01
00:05:25.825 : :Chapter 02
00:08:15.077 : :Chapter 03
00:10:02.977 : :Chapter 04
00:13:42.738 : :Chapter 05
00:18:24.978 : :Chapter 06
00:20:22.763 : :Chapter 07
00:22:19.755 : :Chapter 08
00:25:11.843 : :Chapter 09
00:30:06.846 : :Chapter 10
00:34:35.156 : :Chapter 11
00:38:03.447 : :Chapter 12
00:40:36.392 : :Chapter 13
00:45:15.379 : :Chapter 14
00:50:16.138 : :Chapter 15
00:54:12.999 : :Chapter 16
00:56:34.641 : :Chapter 17
01:00:12.483 : :Chapter 18
01:02:23.406 : :Chapter 19
01:05:52.406 : :Chapter 20
01:08:27.561 : :Chapter 21
01:12:49.615 : :Chapter 22
01:19:17.002 : :Chapter 23
01:21:20.292 : :Chapter 24
01:26:42.405 : :Chapter 25
01:28:47.488 : :Chapter 26
01:35:06.617 : :Chapter 27
01:39:27.086 : :Chapter 28
01:41:46.100 : :Chapter 29
01:44:08.659 : :Chapter 30
01:49:50.875 : :Chapter 31
01:54:00.542 : :Chapter 32
02:00:29.430 : :Chapter 33


_________________
Проголосуй за трекер Открытый торрент трекер - RUS-MEDIA.ORG

Проголосуй Открытый торрент трекер - RUS-MEDIA.ORG


Вернуться к началу
 Профиль Отправить личное сообщение  
 
   Похожие торренты   Автор   Торрент   Размер 
В этой теме нет новых непрочитанных сообщений. Девушка из воды / Lady in the Water [фэнтези, триллер, драма, 2006] BDRip 1080p, Dub

salma3

6 | 24

8.78 ГБ

В этой теме нет новых непрочитанных сообщений. Форма воды / The Shape of Water [Фэнтези, драма, приключения, 2017] BDRip 1080p, Dub [Лицензия ]

salma3

0 | 0

13.33 ГБ

В этой теме нет новых непрочитанных сообщений. Форма воды / The Shape of Water [драма, приключения, 2017] BDRip-HEVC 1080p, Dub [iTunes] [60 fps]

salma3

0 | 1

7.52 ГБ

В этой теме нет новых непрочитанных сообщений. Форма воды / The Shape of Water [Фэнтези, драма, приключения, 2017] BDRip 1080p, Dub [iTunes]

salma3

478 | 226

12.42 ГБ

В этой теме нет новых непрочитанных сообщений. Просто добавь воды / Just Add Water [Мелодрама, комедия, 2007] BDRip 720p, Mvo

salma3

0 | 0

4.37 ГБ

В этой теме нет новых непрочитанных сообщений. Боязнь воды / Fear of Water [драма, мелодрама, 2015] WEBDLRip, Mvo

salma3

117 | 40

1.37 ГБ

В этой теме нет новых непрочитанных сообщений. Форма воды / The Shape of Water [фантастика, драма, 2017] Blu-ray EUR 1080p, Dub [Лицензия]

salma3

0 | 0

44.68 ГБ


Начать новую тему Ответить на тему  [ 1 сообщение ] 




Для Мосгорсуда, Роскомнадзора и рекламодателей:: mosgorsud-torrent[собачка]yandex.ru
cron