Торрент файл
скачать торрент магнет ссылка Добавлен: 28 июн 2017, 21:35
Размер: 5.56 ГБ
Сидеров: 55
Личеров: 28
Статус: (salma3)
Автор

СообщениеДобавлено: 28 июн 2017, 21:35 

Не в сети
Супермодератор
Аватара пользователя
Дата регистрации:
15 фев 2012, 16:44
Возраст: 28
Спасибо: 7207 / 2147
Сообщения: 65688
Год выхода: 1990
Жанр: боевик, триллер, мелодрама
Режиссер: Ларри Коэн

В ролях: Эрик Робертс, Джеймс Эрл Джоунс, Миган Гэллагер, Ред Баттонс, Джанин Тернер, Эрик Брэден, Ричард Брайт, Джеймс Диксон, Джилл Гэтсби, Мартин Бартер

О фильме:
Молодую девушку прямо на улице забирает машина «Скорой помощи» с диагнозом «диабет». Находившийся рядом молодой человек хочет поехать вместе с ними, но ему отказывают. Когда парень все-таки решает найти понравившуюся ему девушку и приезжает в указанную больницу, девушки там не оказывается. Машины «Скорой помощи» с указанными номерами и такого цвета в больнице просто нет…



Страна: США
Продолжительность: 01:35:34
Перевод: Профессиональный (многоголосый, закадровый) + Авторский одноголосый

Файл
Качество: BDRip 720p
Видео: High@L4.1, ~7042 Кбит/с, 1280x692, 23.976 кадр/с
Аудио#1: Russian: 48 kHz, AC3, 2/0 (L,R) ch, ~224.00 kbps avg |Многоголосый закадровый, СТС|
Аудио#2: Russian: 48 kHz, AC3, 2/0 (L,R) ch, ~224.00 kbps avg |Многоголосый закадровый, ОРТ|
Аудио#3: Russian: 48 kHz, AC3, 2/0 (L,R) ch, ~224.00 kbps avg |Одноголосый закадровый, А.Гаврилов|
Аудио#4: Russian: 48 kHz, AC3, 2/0 (L,R) ch, ~224.00 kbps avg |Одноголосый закадровый, Л.Володарский|
Аудио#5: English: 48 kHz, AC3, 2/0 (L,R) ch, ~224.00 kbps avg
Субтитры: нет

x264 info: frame I:816 Avg QP:16.38 size:123568
x264 info: frame P:27907 Avg QP:17.65 size: 67597
x264 info: frame B:108765 Avg QP:19.75 size: 29163
x264 info: consecutive B-frames: 0.9% 1.0% 4.0% 23.5% 23.1% 39.9% 4.3% 1.5% 0.6% 0.4% 0.3% 0.2% 0.3%

General
Unique ID : 279840851969863510167265009390647727294 (0xD287633CD820D6EFBBF710955BAF54BE)
Complete name : D:КИНОСкорая помощь.(1990).BLU-RAY.720p.[-=DoMiNo=-].mkv
Format : Matroska
Format version : Version 4 / Version 2
File size : 5.56 GiB
Duration : 1 h 35 min
Overall bit rate : 8 328 kb/s
Movie name : Скорая помощь
Deion : Молодую девушку прямо на улице забирает машина «Скорой помощи» с диагнозом «диабет». Находившийся рядом молодой человек хочет поехать вместе с ними, но ему отказывают. Когда парень все-таки решает найти понравившуюся ему девушку и приезжает в указанную больницу, девушки там не оказывается. Машины «Скорой помощи» с указанными номерами и такого цвета в больнице просто нет…
Writing application : XviD4PSP 7.0.391 DAILY
Writing library : Lavf57.71.100
ErrorDetectionType : Per level 1
Attachments : poster.jpg
ACTORS : Эрик Робертс, Джеймс Эрл Джонс, Меган Галлахер, Ред Баттонс, Джанин Тернер, Эрик Браден, Ричард Брайт, Джеймс Диксон, Джилл Гэтсби, Мартин Бартер, Лаурен Лэндон, Ник Чинланд, Matt Norklun, Руди Джонс, Стэн Ли, Макс, Дебора Хедуолл, Сьюзан Бломмарт, Беатрис Уинд, Джордан Дервин, Александра Джонс, Майкл О’Харе, Дэниэл Чэпман, Крис Норрис, Дж.С. Ли, Кэтрин Шульц, Джо Чирилло, Джо Пентанджело, Edgard Mourino, Шерри Билл, Джин Кэнфилд, Tim «The Byrdman» Byrd, Кевин Дорнан, Рони Клэнтон, Иллэна Дайамант, Кен Симмонс, Frank Pagnanella, Питер Сэбистон, Томас Маркителли, Синтия Костас, Джин Колан, Кевин Хэйген, Донна Эванс, Тереза Хэйес, Paul Yeuell, Гари Кларк, Джанелл Коэн, Джо Том Коллинз, Ларри Хама, Крис Нельсон Норрис, Джим Саликруп, Чарли Сара
COMPOSER : Джей Чэттауэй
COUNTRY : США
DATE : 1990
DIRECTOR : Ларри Коэн
ENCODING_INFO : BluRay > MKV 720p / H264 > X264 CRF 17.5 Произвольный / AC3 > COPY Безопасное / AC3 > COPY Безопасное / AC3 > COPY Безопасное / AC3 > COPY Безопасное / PCM_BLURAY > AC3 CBR 224kbps
GENRE : ужасы, боевик, триллер, мелодрама, комедия
HD_VIDEO : 1
IMDB_RATING : 5.80
ITUNEXTC : mpaa|R|400|
Language : und
MEDIA_TYPE : 9
ORIGINAL_TITLE : The Ambulance
PRODUCER : Моктесума Эспарса, Роберт Кац, Барбара Зитвер
RATING : 6.440
WRITER : Ларри Коэн

Video
ID : 1
Format : AVC
Format/Info : Advanced Video Codec
Format profile : High@L4.1
Format settings, CABAC : Yes
Format settings, ReFrames : 9 frames
Codec ID : V_MPEG4/ISO/AVC
Duration : 1 h 35 min
Bit rate : 7 042 kb/s
Width : 1 280 pixels
Height : 692 pixels
Display aspect ratio : 1.85:1
Frame rate mode : Constant
Frame rate : 23.976 (24000/1001) FPS
Color space : YUV
Chroma subsampling : 4:2:0
Bit depth : 8 bits
Scan type : Progressive
Bits/(Pixel*Frame) : 0.332
Stream size : 4.70 GiB (85%)
Title : BLU-RAY_720p_RIP_BY_-=DoMiNo=-
Writing library : x264 core 150 r2833M df79067
Encoding settings : cabac=1 / ref=9 / deblock=1:-3:-3 / analyse=0x3:0x133 / me=umh / subme=11 / psy=1 / psy_rd=1.00:0.10 / mixed_ref=1 / me_range=48 / chroma_me=1 / trellis=2 / 8x8dct=1 / cqm=0 / deadzone=21,11 / fast_pskip=0 / chroma_qp_offset=-3 / threads=6 / lookahead_threads=1 / sliced_threads=0 / nr=0 / decimate=1 / interlaced=0 / bluray_compat=0 / constrained_intra=0 / bframes=12 / b_pyramid=2 / b_adapt=2 / b_bias=0 / direct=3 / weightb=1 / open_gop=0 / weightp=2 / keyint=230 / keyint_min=23 / scenecut=40 / intra_refresh=0 / rc=crf / mbtree=0 / crf=17.5 / qcomp=0.60 / qpmin=0 / qpmax=69 / qpstep=4 / ip_ratio=1.40 / pb_ratio=1.30 / aq=1:1.00
Default : Yes
Forced : No
Color range : Limited
Color primaries : BT.709
Transfer characteristics : BT.709
Matrix coefficients : BT.709
DURATION : 01:35:34.354000000

Audio #1
ID : 2
Format : AC-3
Format/Info : Audio Coding 3
Mode : Dolby Digital
Format settings, Endianness : Big
Codec ID : A_AC3
Duration : 1 h 35 min
Bit rate mode : Constant
Bit rate : 224 kb/s
Channel(s) : 2 channels
Channel positions : Front: L R
Sampling rate : 48.0 kHz
Frame rate : 31.250 FPS (1536 spf)
Bit depth : 16 bits
Compression mode : Lossy
Stream size : 153 MiB (3%)
Title : MVO_STS
Language : Russian
Service kind : Complete Main
Default : Yes
Forced : No
DURATION : 01:35:34.400000000

Audio #2
ID : 3
Format : AC-3
Format/Info : Audio Coding 3
Mode : Dolby Digital
Format settings, Endianness : Big
Codec ID : A_AC3
Duration : 1 h 35 min
Bit rate mode : Constant
Bit rate : 224 kb/s
Channel(s) : 2 channels
Channel positions : Front: L R
Sampling rate : 48.0 kHz
Frame rate : 31.250 FPS (1536 spf)
Bit depth : 16 bits
Compression mode : Lossy
Stream size : 153 MiB (3%)
Title : MVO_ORT
Language : Russian
Service kind : Complete Main
Default : No
Forced : No
DURATION : 01:35:34.400000000

Audio #3
ID : 4
Format : AC-3
Format/Info : Audio Coding 3
Mode : Dolby Digital
Format settings, Endianness : Big
Codec ID : A_AC3
Duration : 1 h 35 min
Bit rate mode : Constant
Bit rate : 224 kb/s
Channel(s) : 2 channels
Channel positions : Front: L R
Sampling rate : 48.0 kHz
Frame rate : 31.250 FPS (1536 spf)
Bit depth : 16 bits
Compression mode : Lossy
Stream size : 153 MiB (3%)
Title : AVO_А.Гаврилов
Language : Russian
Service kind : Complete Main
Default : No
Forced : No
DURATION : 01:35:34.400000000

Audio #4
ID : 5
Format : AC-3
Format/Info : Audio Coding 3
Mode : Dolby Digital
Format settings, Endianness : Big
Codec ID : A_AC3
Duration : 1 h 35 min
Bit rate mode : Constant
Bit rate : 224 kb/s
Channel(s) : 2 channels
Channel positions : Front: L R
Sampling rate : 48.0 kHz
Frame rate : 31.250 FPS (1536 spf)
Bit depth : 16 bits
Compression mode : Lossy
Stream size : 153 MiB (3%)
Title : AVO_Л.Володарский
Language : Russian
Service kind : Complete Main
Default : No
Forced : No
DURATION : 01:35:34.400000000

Audio #5
ID : 6
Format : AC-3
Format/Info : Audio Coding 3
Format settings, Endianness : Big
Codec ID : A_AC3
Duration : 1 h 35 min
Bit rate mode : Constant
Bit rate : 224 kb/s
Channel(s) : 2 channels
Channel positions : Front: L R
Sampling rate : 48.0 kHz
Frame rate : 31.250 FPS (1536 spf)
Bit depth : 16 bits
Compression mode : Lossy
Stream size : 153 MiB (3%)
Title : ENG
Language : English
Service kind : Complete Main
Default : No
Forced : No
DURATION : 01:35:34.400000000

Menu
00:00:00.000 : :Глава 1
00:05:00.000 : :Глава 2
00:10:00.000 : :Глава 3
00:15:00.000 : :Глава 4
00:20:00.000 : :Глава 5
00:25:00.000 : :Глава 6
00:30:00.000 : :Глава 7
00:35:00.000 : :Глава 8
00:40:00.000 : :Глава 9
00:45:00.000 : :Глава 10
00:50:00.000 : :Глава 11
00:55:00.000 : :Глава 12
01:00:00.000 : :Глава 13
01:05:00.000 : :Глава 14
01:10:00.000 : :Глава 15
01:15:00.000 : :Глава 16
01:20:00.000 : :Глава 17
01:25:00.000 : :Глава 18
01:30:00.000 : :Глава 19
01:35:00.000 : :Глава 20


_________________
Проголосуй за трекер Открытый торрент трекер - RUS-MEDIA.ORG

Проголосуй Открытый торрент трекер - RUS-MEDIA.ORG


Вернуться к началу
 Профиль Отправить личное сообщение  
 
   Похожие торренты   Автор   Торрент   Размер 
В этой теме нет новых непрочитанных сообщений. Скорая помощь / The Ambulance [боевик, триллер, мелодрама, 1990] BDRip 720p, Mvo

salma3

4 | 71

4.37 ГБ

В этой теме нет новых непрочитанных сообщений. Скорая помощь / The Ambulance [боевик, триллер, мелодрама, 1990] BDRip. Mvo

salma3

74 | 13

1.47 ГБ

В этой теме нет новых непрочитанных сообщений. Никита / Nikita [боевик, триллер, 1990] BDRip 720p, Mvo+Dvo+Avo+Sub

salma3

20 | 10

10.29 ГБ

В этой теме нет новых непрочитанных сообщений. Человек тьмы / Darkman [Фантастика, Боевик, Триллер, 1990] BDRip 720p, Mvo

salma3

17 | 6

6.38 ГБ

В этой теме нет новых непрочитанных сообщений. Вспомнить всё / Total Recall [Фантастика, боевик, триллер, 1990] BDRip 720p, Mvo

salma3

31 | 7

9.45 ГБ

В этой теме нет новых непрочитанных сообщений. Отступник / Обратный след / Catchfire / Backtrack [Боевик, триллер, мелодрама, 1990] WEB-DLRip 720p, Dvo

salma3

0 | 0

3.99 ГБ

В этой теме нет новых непрочитанных сообщений. Птичка на проводе / Bird on a Wire [боевик, триллер, комедия, 1990] BDRip 720p, Dub

salma3

10 | 37

12 ГБ


Начать новую тему Ответить на тему  [ 1 сообщение ] 




Для Мосгорсуда, Роскомнадзора и рекламодателей:: mosgorsud-torrent[собачка]yandex.ru
cron