Торрент файл
скачать торрент магнет ссылка Добавлен: 27 июн 2017, 12:34
Размер: 6.77 ГБ
Сидеров: 78
Личеров: 20
Статус: (salma3)
Автор

СообщениеДобавлено: 27 июн 2017, 12:34 

В сети
Супермодератор
Аватара пользователя
Дата регистрации:
15 фев 2012, 16:44
Возраст: 28
Спасибо: 7165 / 2147
Сообщения: 61996
Год выхода: 1996
Жанр: Комедия
Режиссер: Джонатан Линн

В ролях: Стив Мартин, Дэн Эйкройд, Фил Хартмен, Гленн Хедли, Дэрил Митчелл, Макс Казелла, Эрик Эдвардс, Дэн Ферро, Джон Маршалл Джонс, Брайан Лекнер, Джон Ортис, Памела Адлон, Митчелл Уитфилд, Остин Пендлтон, Крис Рок, Кэти Сильверс, Стив Парк, Дебра Джо Рапп, Ричард Херд, Стив Кехела, Дейл Дай, Чарльз С. Стивенсон, Рэнс Ховард

О фильме:
Сержант Билко — блестящий мошенник, острослов и неисправимый спорщик. Он — самый неблагонадежный человек в округе, и при этом его любят все. Ну, не все, конечно. Трудно любить человека, руку которого обнаруживаешь в своем кармане.
У сержанта Билко есть один заклятый враг, один друг и одна возлюбленная. Эрнест Билко заведует гаражом на военной базе. Он обладает особым даром «ставить диагноз» сломанным машинам, не открывая крышки капота. Кроме того, Эрнест повсюду находит деньги… по запаху.
Сержант Билко глубоко уважает солдат и офицеров армии США. Он считает, что эти патриоты сделали очень много для своей страны и имеют полное право поразвлечься в свободное от муштры время. Сержант Билко по собственной воле возложил на себя обязанность массовика-затейника для отставных офицеров и превратил форт Бакстер в игорный центр.
Общаясь с этим необычным человеком, можно быть уверенным только в одной вещи: если сержант Билко заключил пари, без сомнений, в выигрыше останется именно он.



Страна: США
Продолжительность: 01:34:08
Перевод: Профессиональный (многоголосый, закадровый) Superbit + Профессиональный (многоголосый, закадровый) Фильм-Экспорт по заказу CTC + Авторский (одноголосый, закадровый) С.Визгунов + Авторский (одноголосый, закадровый) Ю.Живов + Авторский (одноголосый, закадровый) П.Санаев + Авторский (одноголосый, закадровый) Лёша-прапорщик + Профессиональный (многоголосый, закадровый) т/к Україна

Файл
Кодек: x264
Качество: BDRip 720p
Видео: MPEG-4 AVC, 6798 Кбит/с, 1280x544, 23.976 кадр/с
Звук:
Аудио #1: Русский (AC3, 6 ch, 384 Кбит/с) Профессиональный многоголосый (Superbit)
Аудио #2: Русский (AC3, 2 ch, 192 Кбит/с) Профессиональный многоголосый («Фильм-Экспорт» по заказу "CTC")
Аудио #3: Русский (AC3, 2 ch, 192 Кбит/с) Авторский одноголосый (Сергей Визгунов)
Аудио #4: Русский (AC3, 2 ch, 192 Кбит/с) Авторский одноголосый (Юрий Живов)
Аудио #5: Русский (AC3, 2 ch, 192 Кбит/с) Авторский одноголосый (Павел Санаев)
Аудио #6: Русский (AC3, 2 ch, 192 Кбит/с) Любительский одноголосый (Лёша-прапорщик)
Аудио #7: Украинский (AC3, 2 ch, 192 Кбит/с) Профессиональный многоголосый («Україна»)
Аудио #8: Английский (AC3, 6 ch, 448 Кбит/с) Оригинал
Аудио #9: Английский (DTS, 5 ch, 1509 Кбит/с) Оригинал
Субтитры: Русские, английские, немецкие, французские, испанские, португальские, эстонские
General
Unique ID : 232160417903565956755589225646923653106 (0xAEA87856C84694C9A4C452F997DB1FF2)
Complete name : I:Sgt.Bilko.1996.BDRip.720p.x264.6xRus.Ukr.2xEng.mkv
Format : Matroska
Format version : Version 4 / Version 2
File size : 6.77 GiB
Duration : 1 h 34 min
Overall bit rate : 10.3 Mb/s
Encoded date : UTC 2017-06-26 10:55:46
Writing application : mkvmerge v8.3.0 ('Over the Horizon') 32bit
Writing library : libebml v1.3.1 + libmatroska v1.4.2
Attachments : poster_rus.jpg / poster_eng.jpg
Video
ID : 1
Format : AVC
Format/Info : Advanced Video Codec
Format profile : High@L4.1
Format settings, CABAC : Yes
Format settings, ReFrames : 5 frames
Codec ID : V_MPEG4/ISO/AVC
Duration : 1 h 34 min
Bit rate : 6 798 kb/s
Width : 1 280 pixels
Height : 544 pixels
Display aspect ratio : 2.35:1
Frame rate mode : Constant
Frame rate : 23.976 (24000/1001) FPS
Color space : YUV
Chroma subsampling : 4:2:0
Bit depth : 8 bits
Scan type : Progressive
Bits/(Pixel*Frame) : 0.407
Stream size : 4.47 GiB (66%)
Writing library : x264 core 150 r2833 df79067
Encoding settings : cabac=1 / ref=5 / deblock=1:-3:-3 / analyse=0x3:0x113 / me=hex / subme=8 / psy=1 / psy_rd=1.12:0.00 / mixed_ref=1 / me_range=16 / chroma_me=1 / trellis=2 / 8x8dct=1 / cqm=0 / deadzone=21,11 / fast_pskip=1 / chroma_qp_offset=-2 / threads=6 / lookahead_threads=1 / sliced_threads=0 / nr=0 / decimate=1 / interlaced=0 / bluray_compat=0 / constrained_intra=0 / bframes=3 / b_pyramid=2 / b_adapt=2 / b_bias=0 / direct=3 / weightb=1 / open_gop=0 / weightp=2 / keyint=240 / keyint_min=24 / scenecut=40 / intra_refresh=0 / rc_lookahead=50 / rc=2pass / mbtree=1 / bitrate=6798 / ratetol=1.0 / qcomp=0.60 / qpmin=0 / qpmax=69 / qpstep=4 / cplxblur=20.0 / qblur=0.5 / ip_ratio=1.40 / aq=3:0.75
Language : English
Default : Yes
Forced : No
Audio #1
ID : 2
Format : AC-3
Format/Info : Audio Coding 3
Format settings, Endianness : Big
Codec ID : A_AC3
Duration : 1 h 34 min
Bit rate mode : Constant
Bit rate : 384 kb/s
Channel(s) : 6 channels
Channel positions : Front: L C R, Side: L R, LFE
Sampling rate : 48.0 kHz
Frame rate : 31.250 FPS (1536 spf)
Bit depth : 16 bits
Compression mode : Lossy
Stream size : 259 MiB (4%)
Title : AC3, 6 ch, 384 Kbps, MVO, 'Superbit'
Language : Russian
Service kind : Complete Main
Default : Yes
Forced : No
Audio #2
ID : 3
Format : AC-3
Format/Info : Audio Coding 3
Format settings, Endianness : Big
Codec ID : A_AC3
Duration : 1 h 34 min
Bit rate mode : Constant
Bit rate : 192 kb/s
Channel(s) : 2 channels
Channel positions : Front: L R
Sampling rate : 48.0 kHz
Frame rate : 31.250 FPS (1536 spf)
Bit depth : 16 bits
Compression mode : Lossy
Stream size : 129 MiB (2%)
Title : AC3, 2 ch, 192 Kbps, MVO, 'CTC'
Language : Russian
Service kind : Complete Main
Default : No
Forced : No
Audio #3
ID : 4
Format : AC-3
Format/Info : Audio Coding 3
Format settings, Endianness : Big
Codec ID : A_AC3
Duration : 1 h 34 min
Bit rate mode : Constant
Bit rate : 192 kb/s
Channel(s) : 2 channels
Channel positions : Front: L R
Sampling rate : 48.0 kHz
Frame rate : 31.250 FPS (1536 spf)
Bit depth : 16 bits
Compression mode : Lossy
Stream size : 129 MiB (2%)
Title : AC3, 2 ch, 192 Kbps, AVO, Сергей Визгунов
Language : Russian
Service kind : Complete Main
Default : No
Forced : No
Audio #4
ID : 5
Format : AC-3
Format/Info : Audio Coding 3
Format settings, Endianness : Big
Codec ID : A_AC3
Duration : 1 h 34 min
Bit rate mode : Constant
Bit rate : 192 kb/s
Channel(s) : 2 channels
Channel positions : Front: L R
Sampling rate : 48.0 kHz
Frame rate : 31.250 FPS (1536 spf)
Bit depth : 16 bits
Compression mode : Lossy
Stream size : 129 MiB (2%)
Title : AC3, 2 ch, 192 Kbps, AVO, Юрий Живов
Language : Russian
Service kind : Complete Main
Default : No
Forced : No
Audio #5
ID : 6
Format : AC-3
Format/Info : Audio Coding 3
Format settings, Endianness : Big
Codec ID : A_AC3
Duration : 1 h 34 min
Bit rate mode : Constant
Bit rate : 192 kb/s
Channel(s) : 2 channels
Channel positions : Front: L R
Sampling rate : 48.0 kHz
Frame rate : 31.250 FPS (1536 spf)
Bit depth : 16 bits
Compression mode : Lossy
Stream size : 129 MiB (2%)
Title : AC3, 2 ch, 192 Kbps, AVO, Павел Санаев
Language : Russian
Service kind : Complete Main
Default : No
Forced : No
Audio #6
ID : 7
Format : AC-3
Format/Info : Audio Coding 3
Format settings, Endianness : Big
Codec ID : A_AC3
Duration : 1 h 34 min
Bit rate mode : Constant
Bit rate : 192 kb/s
Channel(s) : 2 channels
Channel positions : Front: L R
Sampling rate : 48.0 kHz
Frame rate : 31.250 FPS (1536 spf)
Bit depth : 16 bits
Compression mode : Lossy
Stream size : 129 MiB (2%)
Title : AC3, 2 ch, 192 Kbps, VO, Лёша-прапорщик
Language : Russian
Service kind : Complete Main
Default : No
Forced : No
Audio #7
ID : 8
Format : AC-3
Format/Info : Audio Coding 3
Format settings, Endianness : Big
Codec ID : A_AC3
Duration : 1 h 34 min
Bit rate mode : Constant
Bit rate : 192 kb/s
Channel(s) : 2 channels
Channel positions : Front: L R
Sampling rate : 48.0 kHz
Frame rate : 31.250 FPS (1536 spf)
Bit depth : 16 bits
Compression mode : Lossy
Stream size : 129 MiB (2%)
Title : AC3, 2 ch, 192 Kbps, Українська
Language : Ukrainian
Service kind : Complete Main
Default : No
Forced : No
Audio #8
ID : 9
Format : AC-3
Format/Info : Audio Coding 3
Format settings, Endianness : Big
Codec ID : A_AC3
Duration : 1 h 34 min
Bit rate mode : Constant
Bit rate : 448 kb/s
Channel(s) : 6 channels
Channel positions : Front: L C R, Side: L R, LFE
Sampling rate : 48.0 kHz
Frame rate : 31.250 FPS (1536 spf)
Bit depth : 16 bits
Compression mode : Lossy
Stream size : 302 MiB (4%)
Title : AC3, 6 ch, 448 Kbps, Original
Language : English
Service kind : Complete Main
Default : No
Forced : No
Audio #9
ID : 10
Format : DTS
Format/Info : Digital Theater Systems
Mode : 16
Format settings, Endianness : Big
Codec ID : A_DTS
Duration : 1 h 34 min
Bit rate mode : Constant
Bit rate : 1 509 kb/s
Channel(s) : 5 channels
Channel positions : Front: L C R, Side: L R
Sampling rate : 48.0 kHz
Frame rate : 93.750 FPS (512 spf)
Bit depth : 24 bits
Compression mode : Lossy
Stream size : 1 016 MiB (15%)
Title : DTS, 5 ch, 1509 Kbps, Original
Language : English
Default : No
Forced : No
Text #1
ID : 11
Format : UTF-8
Codec ID : S_TEXT/UTF8
Codec ID/Info : UTF-8 Plain Text
Duration : 1 h 29 min
Bit rate : 126 b/s
Count of elements : 1072
Stream size : 83.1 KiB (0%)
Language : Russian
Default : No
Forced : No
Text #2
ID : 12
Format : UTF-8
Codec ID : S_TEXT/UTF8
Codec ID/Info : UTF-8 Plain Text
Duration : 1 h 31 min
Bit rate : 76 b/s
Count of elements : 1241
Stream size : 51.3 KiB (0%)
Language : English
Default : No
Forced : No
Text #3
ID : 13
Format : UTF-8
Codec ID : S_TEXT/UTF8
Codec ID/Info : UTF-8 Plain Text
Duration : 1 h 29 min
Bit rate : 68 b/s
Count of elements : 1057
Stream size : 44.8 KiB (0%)
Language : German
Default : No
Forced : No
Text #4
ID : 14
Format : UTF-8
Codec ID : S_TEXT/UTF8
Codec ID/Info : UTF-8 Plain Text
Duration : 1 h 29 min
Bit rate : 63 b/s
Count of elements : 1058
Stream size : 41.6 KiB (0%)
Language : French
Default : No
Forced : No
Text #5
ID : 15
Format : UTF-8
Codec ID : S_TEXT/UTF8
Codec ID/Info : UTF-8 Plain Text
Duration : 1 h 29 min
Bit rate : 70 b/s
Count of elements : 1058
Stream size : 46.2 KiB (0%)
Language : Spanish
Default : No
Forced : No
Text #6
ID : 16
Format : UTF-8
Codec ID : S_TEXT/UTF8
Codec ID/Info : UTF-8 Plain Text
Duration : 1 h 29 min
Bit rate : 67 b/s
Count of elements : 1089
Stream size : 44.1 KiB (0%)
Language : Portuguese
Default : No
Forced : No
Text #7
ID : 17
Format : UTF-8
Codec ID : S_TEXT/UTF8
Codec ID/Info : UTF-8 Plain Text
Duration : 1 h 28 min
Bit rate : 69 b/s
Count of elements : 1041
Stream size : 45.2 KiB (0%)
Language : Estonian
Default : No
Forced : No
Menu
00:00:00.000 : en:00:00:00.000
00:08:14.119 : en:00:08:14.119
00:15:09.992 : en:00:15:09.992
00:23:24.028 : en:00:23:24.028
00:30:34.041 : en:00:30:34.041
00:36:35.026 : en:00:36:35.026
00:44:46.058 : en:00:44:46.058
00:53:13.273 : en:00:53:13.273
00:59:43.163 : en:00:59:43.163
01:11:10.224 : en:01:11:10.224
01:19:25.219 : en:01:19:25.219
01:29:50.594 : en:01:29:50.594


_________________
Проголосуй за трекер Открытый торрент трекер - RUS-MEDIA.ORG

Проголосуй Открытый торрент трекер - RUS-MEDIA.ORG


Вернуться к началу
 Профиль Отправить личное сообщение  
 
   Похожие торренты   Автор   Торрент   Размер 
В этой теме нет новых непрочитанных сообщений. Сержант Билко / Sgt. Bilko [комедия, 1996] BDRip 1080p, Mvo

salma3

91 | 28

8.54 ГБ

В этой теме нет новых непрочитанных сообщений. Сержант Билко / Sgt. Bilko [комедия, 1996] WEB-DL 1080p, Mvo

salma3

113 | 61

3.34 ГБ

В этой теме нет новых непрочитанных сообщений. Сержант Билко / Sgt. Bilko [Комедия, 1996] WEB-DLRip-AVC, Mvo [Open Matte]

salma3

12 | 5

2.06 ГБ

В этой теме нет новых непрочитанных сообщений. Сержант Билко / Sgt. Bilko [Комедия, 1996] WEB-DL 1080p, Mvo [Open Matte]

salma3

0 | 0

11.79 ГБ

В этой теме нет новых непрочитанных сообщений. Только она единственная / She's the One [Комедия, мелодрама, 1996] BDRip 720p, Mvo+Sub

salma3

48 | 12

3.99 ГБ

В этой теме нет новых непрочитанных сообщений. Кабельщик / The Cable Guy [триллер, драма, комедия, 1996] BDRip 720p, Dub

salma3

7 | 3

7.21 ГБ

В этой теме нет новых непрочитанных сообщений. Не будите спящую собаку / Flirting with Disaster [комедия, 1996] BDRip 720p, Mvo

salma3

18 | 3

3.76 ГБ


Начать новую тему Ответить на тему  [ 1 сообщение ] 




Для Мосгорсуда, Роскомнадзора и рекламодателей:: mosgorsud-torrent[собачка]yandex.ru
cron