Торрент файл
скачать торрент магнет ссылка Добавлен: 26 июн 2017, 10:51
Размер: 7.25 ГБ
Сидеров: 405
Личеров: 265
Статус: (salma3)
Автор

СообщениеДобавлено: 26 июн 2017, 10:51 

Не в сети
Супермодератор
Аватара пользователя
Дата регистрации:
15 фев 2012, 16:44
Возраст: 30
Спасибо: 8112 / 2147
Сообщения: 93395
Год выхода: 1986
Жанр: Комедия, приключения
Режиссер: Роман Полански

В ролях: Уолтер Мэттау, Крис Кампьон, Дэмьен Томас, Шарлотта Льюис, Ричард Пирсон, Олу Джейкобс, Рой Киннер, Билл Фрейзер, Ферди Мэйн, Дэвид Келли

О фильме:
Два пирата: старый морской волк Рэд и юнга Жан-Батист по прозвищу Лягушонок оказались на плоту посреди океана. Их подбирает испанский корабль, на борту которого находится сокровище - золотой трон вождя. Пираты не могут упустить редкий случай разбогатеть, и конечно же, подбивают команду к бунту.



Страна: Франция, Тунис
Продолжительность: 02:01:19
Перевод: Профессиональный (многоголосый, закадровый) + Авторский одноголосый
Русские субтитры: есть

Файл
Кодек: AVC
Качество: BDRip 1080p
Видео: 1916x818, 23.976 FPS, ~7807 Кбит/с
Звук #1: AC3, 2 ch, ~192 Кбит/с - Профессиональный (многоголосый, закадровый)
Звук #2: AC3, 2 ch, ~192 Кбит/с - AVO, Юрий Живов
Звук #3: AC3, 2 ch, ~192 Кбит/с - AVO, Леонид Володарский

General
Unique ID : 97799169165591254741688195616171308088 (0x49936F51E2A2F3585D396F5D24133438)
Complete name : D:КИНОПираты.(1986).BLU-RAY.1080p.[-=DoMiNo=-].mkv
Format : Matroska
Format version : Version 4 / Version 2
File size : 7.25 GiB
Duration : 2 h 1 min
Overall bit rate : 8 554 kb/s
Movie name : Пираты
Writing application : XviD4PSP 7.0.391 DAILY
Writing library : Lavf57.71.100
ErrorDetectionType : Per level 1
Attachments : poster.jpg
ACTORS : Уолтер Мэттау, Крис Кампьон, Дэмиен Томас, Олу Джейкобс, Ферди Мэйн, Дэвид Келли, Тони Пек, Энтони Доусон, Ришар Дьё, Жак Мори, Хосе Сантамария, Роберт Дорнинг, Люк Жамати, Эмилио Фернандез, Владислав Комар, Жорж Трилла, Ричард Пирсон, Шарлотта Льюис, Жорж Монтилье, Джон Гилл, Дэвид Фокс, Брайан Максин, Рауф Бен Амор, Эугениуш Привезенцев, Роджер Эштон-Гриффитс, Иэн Дёри, Билл Стюарт, Сидни Бромли, Кардью Робинсон, Рой Киннер, Даниэль Эмильфорк, Кэрол Фредерикс, Аллен Хойст, Дэнис Фонтейн, Майкл Элфик, Анджело Касадеи, Билл Фрейзер, Антонио Сполетини, Билл МакКейб, Смиля Михайлович, Бернар Мюссон, Жозиан Комелла, Джина Калабрезе, James Start
COMPOSER : Филипп Сард
COUNTRY : Франция, Тунис
DATE : 1986
DIRECTOR : Роман Полански
ENCODING_INFO : BluRay > MKV 1080p / H264 > X264 CRF 18.0 Произвольный / AC3 > COPY Безопасное / AC3 > COPY Безопасное / AC3 > COPY Безопасное
GENRE : комедия, приключения, семейный
HD_VIDEO : 1
IMDB_RATING : 6.10
ITUNEXTC : mpaa|PG-13|300|
Language : und
MEDIA_TYPE : 9
ORIGINAL_TITLE : Pirates
PRODUCER : Тарак Бен Аммар, Марк Ломбардо, Том Маунт, Умберто Самбуко
RATING : 6.921
WRITER : Джон Браунджон, Жерар Браш, Роман Полански
Video
ID : 1
Format : AVC
Format/Info : Advanced Video Codec
Format profile : High@L4.1
Format settings, CABAC : Yes
Format settings, ReFrames : 5 frames
Codec ID : V_MPEG4/ISO/AVC
Duration : 2 h 1 min
Bit rate : 7 807 kb/s
Width : 1 916 pixels
Height : 818 pixels
Display aspect ratio : 2.35:1
Frame rate mode : Constant
Frame rate : 23.976 (24000/1001) FPS
Color space : YUV
Chroma subsampling : 4:2:0
Bit depth : 8 bits
Scan type : Progressive
Bits/(Pixel*Frame) : 0.208
Stream size : 6.62 GiB (91%)
Title : BLU-RAY_1080p_RIP_BY_-=DoMiNo=-
Writing library : x264 core 150 r2833M df79067
Encoding settings : cabac=1 / ref=5 / deblock=1:-3:-3 / analyse=0x3:0x113 / me=umh / subme=11 / psy=1 / psy_rd=1.00:0.05 / mixed_ref=1 / me_range=48 / chroma_me=1 / trellis=2 / 8x8dct=1 / cqm=0 / deadzone=21,11 / fast_pskip=0 / chroma_qp_offset=-3 / threads=6 / lookahead_threads=1 / sliced_threads=0 / nr=0 / decimate=1 / interlaced=0 / bluray_compat=0 / constrained_intra=0 / bframes=6 / b_pyramid=2 / b_adapt=2 / b_bias=0 / direct=3 / weightb=1 / open_gop=0 / weightp=2 / keyint=230 / keyint_min=23 / scenecut=40 / intra_refresh=0 / rc=crf / mbtree=0 / crf=18.0 / qcomp=0.60 / qpmin=0 / qpmax=69 / qpstep=4 / ip_ratio=1.40 / pb_ratio=1.30 / aq=1:1.00
Default : Yes
Forced : No
Color range : Limited
Color primaries : BT.709
Transfer characteristics : BT.709
Matrix coefficients : BT.709
DURATION : 02:01:19.230000000
Audio #1
ID : 2
Format : AC-3
Format/Info : Audio Coding 3
Format settings, Endianness : Big
Codec ID : A_AC3
Duration : 2 h 1 min
Bit rate mode : Constant
Bit rate : 192 kb/s
Channel(s) : 2 channels
Channel positions : Front: L R
Sampling rate : 48.0 kHz
Frame rate : 31.250 FPS (1536 spf)
Bit depth : 16 bits
Compression mode : Lossy
Stream size : 167 MiB (2%)
Title : RUS_MVO
Language : Russian
Service kind : Complete Main
Default : Yes
Forced : No
DURATION : 02:01:19.296000000
Audio #2
ID : 3
Format : AC-3
Format/Info : Audio Coding 3
Format settings, Endianness : Big
Codec ID : A_AC3
Duration : 2 h 1 min
Bit rate mode : Constant
Bit rate : 192 kb/s
Channel(s) : 2 channels
Channel positions : Front: L R
Sampling rate : 48.0 kHz
Frame rate : 31.250 FPS (1536 spf)
Bit depth : 16 bits
Compression mode : Lossy
Stream size : 167 MiB (2%)
Title : RUS_AVO, Юрий Живов
Language : Russian
Service kind : Complete Main
Default : No
Forced : No
DURATION : 02:01:19.296000000
Audio #3
ID : 4
Format : AC-3
Format/Info : Audio Coding 3
Format settings, Endianness : Big
Codec ID : A_AC3
Duration : 2 h 1 min
Bit rate mode : Constant
Bit rate : 192 kb/s
Channel(s) : 2 channels
Channel positions : Front: L R
Sampling rate : 48.0 kHz
Frame rate : 31.250 FPS (1536 spf)
Bit depth : 16 bits
Compression mode : Lossy
Stream size : 167 MiB (2%)
Title : RUS_AVO, Леонид Володарский
Language : Russian
Service kind : Complete Main
Default : No
Forced : No
DURATION : 02:01:19.296000000
Text
ID : 5
Format : PGS
Codec ID : S_HDMV/PGS
Codec ID/Info : Picture based subtitle format used on BDs/HD-DVDs
Title : RUS
Language : Russian
Default : Yes
Forced : No
DURATION : 01:55:58.201000000
Menu
00:00:00.000 : :Глава 1
00:07:56.684 : :Глава 2
00:19:00.764 : :Глава 3
00:28:22.534 : :Глава 4
00:34:57.512 : :Глава 5
00:43:20.598 : :Глава 6
00:51:53.068 : :Глава 7
01:07:03.352 : :Глава 8
01:16:20.242 : :Глава 9
01:24:31.775 : :Глава 10
01:33:25.224 : :Глава 11
01:44:05.489 : :Глава 12




_________________
Проголосуй за трекер Открытый торрент трекер - RUS-MEDIA.ORG

Проголосуй Открытый торрент трекер - RUS-MEDIA.ORG


Книжный торрент трекер



Вернуться к началу
 Профиль Отправить личное сообщение  
 
   Похожие торренты   Автор   Торрент   Размер 
В этой теме нет новых непрочитанных сообщений. Пираты / Pirates [Комедия, приключения, 1986] BDRip, Mvo

salma3

106 | 11

1.46 ГБ

В этой теме нет новых непрочитанных сообщений. Пираты / Pirates [Приключения, комедия, семейный, 1986] Blu-Ray 1080p, Mvo

salma3

21 | 25

30.41 ГБ

В этой теме нет новых непрочитанных сообщений. Пираты кровавой реки / Pirates of Blood River [Приключения, пираты, драма, 1962] BDRip 1080p, Mvo

salma3

0 | 0

7.66 ГБ

В этой теме нет новых непрочитанных сообщений. Пираты Карибского моря: Мертвецы не рассказывают сказки / Pirates of the Caribbean: Dead Men Tell No Tales [фэнтези, боевик, комедия, приключения, 2017] BDRip 1080p, Dub+Sub [Лицензия]

salma3

5508 | 4504

11.53 ГБ

В этой теме нет новых непрочитанных сообщений. Ледовые пираты / The Ice Pirates [фантастика, боевик, комедия, 1984] BDRip 1080p, Mvo

salma3

0 | 0

5.89 ГБ

В этой теме нет новых непрочитанных сообщений. Пираты Карибского моря: Мертвецы не рассказывают сказки / Pirates of the Caribbean: Dead Men Tell No Tales [2017] (Хоаким Роннинг) [Фэнтези, боевик, комедия, приключения] [BDRip] [1080p] [DD5.1] [Dub Rus,Ukr,Englis + Subs Rus , ENG] [Лиценз

Враг Нароода

0 | 0

20.17 ГБ

В этой теме нет новых непрочитанных сообщений. Пираты Карибского моря: Мертвецы не рассказывают сказки / Pirates of the Caribbean: Dead Men Tell No Tales [фэнтези, боевик, комедия, приключения, 2017] BDRip, Dub+Sub [Лицензия]

salma3

2202 | 1007

2.18 ГБ


Начать новую тему Ответить на тему  [ 1 сообщение ] 




Для Мосгорсуда, Роскомнадзора и рекламодателей:: mosgorsud-torrent[собачка]yandex.ru
cron