Торрент файл
скачать торрент магнет ссылка Добавлен: 25 июн 2017, 12:47
Размер: 27.14 ГБ
Сидеров: 48
Личеров: 38
Статус: (salma3)
Автор

СообщениеДобавлено: 25 июн 2017, 12:47 

Не в сети
Супермодератор
Аватара пользователя
Дата регистрации:
15 фев 2012, 16:44
Возраст: 28
Спасибо: 6644 / 2146
Сообщения: 45843
Год выхода: 1992
Жанр: Ужасы, фантастика
Режиссер: Бретт Леонард / Brett Leonard

В ролях: Джефф Фэйи / Jeff Fahey, Пирс Броснан / Pierce Brosnan, Дженни Райт / Jenny Wright, Марк Бринглсон / Mark Bringleson, Джеффри Льюис / Geoffrey Lewis, Джереми Слейт / Jeremy Slate, Дин Норрис / Dean Norris, Коллин Коффи / Colleen Coffey, Джим Лэндис / Jim Landis, Трой Эванс / Troy Evans, Розали Майокс / Rosalee Mayeux

О фильме:
Молодой талантливый ученый Трэйс ставит над умственно неполноценным косильщиком лужаек Джоубом эксперименты с использованием высоких компьютерных технологий в комбинации с наркотиками. Трэйс внедряет Джоуба в виртуальную реальность — трехмерный компьютерный мир. Ученому удается развить умственные способности вчерашнего недоумка до супергения. Но в ход эксперимента тайно вмешиваются военные, и испытуемый превращается в сверхинтеллектуального монстра-психопата в человеческом облике, у которого возникают претензии на мировое господство.



Страна: Великобритания, США, Япония
Продолжительность: 2:20:53
Перевод:: Профессиональный (многоголосый закадровый) |R5 от Lizard|
Субтитры: Russian (R5), English (Full, SDH)
Оригинальная аудиодорожка: английский

Файл
Видео: 1920x1038 at 23.976 fps, x264@l4.1, ~ 24500 kbps avg
Аудио 1: Russian: 48 kHz/24-bit, DTS 5.1, ~1509. kbps avg |Многоголосый закадровый||R5 от Lizard|
Аудио 2: English: 48 kHz/24-bit, DTS 5.1, ~1509.00 kbps avg
Аудио 3: English: 48 kHz/24-bit, DTS-HD MA 2.0, ~1987.00 kbps avg
Аудио 4: English: 48 kHz, AAC, 2/0 (L,R) ch, ~61.00 kbps avg |Комментарий|
Format : Matroska
Format version : Version 4 / Version 2
File size : 27.1 GiB
Duration : 2 h 20 min
Overall bit rate : 27.6 Mb/s
Encoded date : UTC 2017-06-24 09:28:53
Writing application : mkvmerge v12.0.0 ('Trust / Lust') 64bit
Writing library : libebml v1.3.4 + libmatroska v1.4.5
Cover : Yes
Attachments : cover.jpg
Video
ID : 1
Format : AVC
Format/Info : Advanced Video Codec
Format profile : High@L4.1
Format settings, CABAC : Yes
Format settings, ReFrames : 4 frames
Codec ID : V_MPEG4/ISO/AVC
Duration : 2 h 20 min
Nominal bit rate : 24.5 Mb/s
Width : 1 920 pixels
Height : 1 038 pixels
Display aspect ratio : 1.85:1
Frame rate mode : Constant
Frame rate : 23.976 (24000/1001) FPS
Color space : YUV
Chroma subsampling : 4:2:0
Bit depth : 8 bits
Scan type : Progressive
Bits/(Pixel*Frame) : 0.513
Writing library : x264 core 150 r2833+58 090e24f t_mod_Custom [8-bit@all X86_64]
Encoding settings : cabac=1 / ref=4 / deblock=1:-3:-3 / analyse=0x3:0x133 / me=umh / subme=10 / psy=1 / fade_compensate=0.00 / psy_rd=0.90:0.05 / mixed_ref=1 / me_range=32 / chroma_me=1 / trellis=2 / 8x8dct=1 / cqm=0 / deadzone=21,11 / fast_pskip=1 / chroma_qp_offset=-3 / threads=6 / lookahead_threads=1 / sliced_threads=0 / nr=0 / decimate=1 / interlaced=0 / bluray_compat=0 / constrained_intra=0 / fgo=0 / bframes=6 / b_pyramid=2 / b_adapt=2 / b_bias=0 / direct=3 / weightb=1 / open_gop=0 / weightp=2 / keyint=250 / keyint_min=23 / scenecut=40 / intra_refresh=0 / rc=2pass / mbtree=0 / bitrate=24500 / ratetol=1.0 / qcomp=0.75 / qpmin=0:0:0 / qpmax=69:69:69 / qpstep=4 / cplxblur=20.0 / qblur=0.5 / ip_ratio=1.10 / pb_ratio=1.10 / aq=3:0.55 / aq-sensitivity=10.00 / aq-factor=1.00:1.00:1.00 / aq2=0 / aq3=0
Language : English
Default : Yes
Forced : No
Color range : Limited
Matrix coefficients : BT.709
Audio #1
ID : 2
Format : DTS
Format/Info : Digital Theater Systems
Mode : 16
Format settings, Endianness : Big
Codec ID : A_DTS
Duration : 2 h 20 min
Bit rate mode : Constant
Bit rate : 1 509 kb/s
Channel(s) : 6 channels
Channel positions : Front: L C R, Side: L R, LFE
Sampling rate : 48.0 kHz
Frame rate : 93.750 FPS (512 spf)
Bit depth : 24 bits
Compression mode : Lossy
Stream size : 1.48 GiB (5%)
Title : Многоголосый закадровый||R5 от Lizard
Language : Russian
Default : Yes
Forced : No
Audio #2
ID : 3
Format : DTS
Format/Info : Digital Theater Systems
Mode : 16
Format settings, Endianness : Big
Codec ID : A_DTS
Duration : 2 h 20 min
Bit rate mode : Constant
Bit rate : 1 509 kb/s
Channel(s) : 6 channels
Channel positions : Front: L C R, Side: L R, LFE
Sampling rate : 48.0 kHz
Frame rate : 93.750 FPS (512 spf)
Bit depth : 24 bits
Compression mode : Lossy
Stream size : 1.48 GiB (5%)
Language : English
Default : No
Forced : No
Audio #3
ID : 4
Format : AAC
Format/Info : Advanced Audio Codec
Format profile : LC
Codec ID : A_AAC
Duration : 2 h 20 min
Channel(s) : 2 channels
Channel positions : Front: L R
Sampling rate : 48.0 kHz
Frame rate : 46.875 FPS (1024 spf)
Compression mode : Lossy
Delay relative to video : 9 ms
Title : Комментарий
Language : English
Default : No
Forced : No
Text #1
ID : 5
Format : UTF-8
Codec ID : S_TEXT/UTF8
Codec ID/Info : UTF-8 Plain Text
Language : English
Default : No
Forced : No
Text #2
ID : 6
Format : UTF-8
Codec ID : S_TEXT/UTF8
Codec ID/Info : UTF-8 Plain Text
Language : English
Default : No
Forced : No
Text #3
ID : 7
Format : UTF-8
Codec ID : S_TEXT/UTF8
Codec ID/Info : UTF-8 Plain Text
Language : Russian
Default : No
Forced : No
Menu
00:00:00.000 : en:00:00:00.000
00:11:54.879 : en:00:11:54.879
00:23:42.628 : en:00:23:42.628
00:36:34.650 : en:00:36:34.650
00:48:18.394 : en:00:48:18.394
00:58:57.824 : en:00:58:57.824
01:12:10.783 : en:01:12:10.783
01:24:11.296 : en:01:24:11.296
01:36:12.725 : en:01:36:12.725
01:46:46.358 : en:01:46:46.358
01:57:09.313 : en:01:57:09.313
02:07:19.506 : en:02:07:19.506


_________________
Проголосуй за трекер Открытый торрент трекер - RUS-MEDIA.ORG

Проголосуй Открытый торрент трекер - RUS-MEDIA.ORG



реклама партнёра


Вернуться к началу
 Профиль Отправить личное сообщение  
 
   Похожие торренты   Автор   Торрент   Размер 
В этой теме нет новых непрочитанных сообщений. Газонокосильщик / The Lawnmower Man [ужасы, фантастика, 1992] BDRemux 1080р, Dvo [Режиссерская версия]

salma3

6 | 11

45.72 ГБ

В этой теме нет новых непрочитанных сообщений. Газонокосильщик / The Lawnmower Man [Ужасы, фантастика, 1992] BDRip 720p, Mvo [Театральная версия]

salma3

10 | 19

7.43 ГБ

В этой теме нет новых непрочитанных сообщений. Газонокосильщик / The Lawnmower Man [ужасы, фантастика, 1992] BDRip, Mvo

salma3

13 | 2

1.46 ГБ

В этой теме нет новых непрочитанных сообщений. Газонокосильщик 2: За пределами киберпространства / Lawnmower Man 2: Beyond Cyberspace [фантастика, боевик, триллер, 1996] WEB-DL 720p, Mvo+Dvo+Avo+Sub

salma3

32 | 9

3.33 ГБ

В этой теме нет новых непрочитанных сообщений. Газонокосильщик 2: За пределами киберпространства / Lawnmower Man 2: Beyond Cyberspace [фантастика, боевик, триллер, 1996] WEB-DLRip, Dvo [НТВ]

salma3

33 | 12

1.45 ГБ

В этой теме нет новых непрочитанных сообщений. Спаун / Отродье / Spawn [фантастика, триллер, ужасы, 1997] BDRip-HEVC, Mvo [Режиссёрская версия]

salma3

38 | 6

2.05 ГБ

В этой теме нет новых непрочитанных сообщений. Сицилиец / The Sicilian [боевик, драма, криминал, 1987] BDRip 1080p, Mvo [Режиссерская версия]

salma3

42 | 29

24.27 ГБ


Начать новую тему Ответить на тему  [ 1 сообщение ] 




Для Мосгорсуда, Роскомнадзора и рекламодателей:: mosgorsud-torrent[собачка]yandex.ru