Торрент файл
скачать торрент магнет ссылка Добавлен: 24 июн 2017, 11:45
Размер: 26.95 ГБ
Сидеров: 0
Личеров: 197
Статус: (salma3)
Автор

СообщениеДобавлено: 24 июн 2017, 11:45 

Не в сети
Супермодератор
Аватара пользователя
Дата регистрации:
15 фев 2012, 16:44
Возраст: 28
Спасибо: 7163 / 2147
Сообщения: 61724
Год выпуска: 2017
Жанр: Мюзикл, фэнтези, мелодрама
Режиссер: Билл Кондон

В ролях: Эмма Уотсон, Дэн Стивенс, Люк Эванс, Джош Гэд, Кевин Клайн, Хэтти Морахэн, Хейдн Гвин, Джерард Хоран, Рэй Фиарон, Эван МакГрегор

О фильме:
Обозлённая Волшебница превратила принца Адама в отвратительное чудовище за то, что тот был злым, самовлюблённым и грубым. Чтобы снять чары с себя и слуг своего замка, ему необходимо научиться быть добрым, любить и быть любимым. Произойти это должно до того, как с розы, подаренной Волшебницей, упадёт последний лепесток. В далёкой деревушке живёт красивая девушка по имени Белль. Однажды её отец Морис отправляется на ярмарку, но по дороге сбивается с пути. Оказавшись в заколдованном замке, он становится пленником Чудовища. Белль спешит отцу на помощь.



Страна: США
Продолжительность: 02:09:16
Перевод: Дублированный [Лицензия]

Файл
Качество: BDRemux 1080p
Видео: MPEG-4 AVC, 1920x1080, 24.0 Mbit/s, 23.976 fps
Аудио #01: 48 kHz, AC3, 5.1, 640 Kbps | Дублированный | RUS
Аудио #02: 48 kHz, DTS-HD MA, 7.1, 5174 Kbps | Оригинал | ENG
Субтитры: Русские, английские

General
Unique ID : 190652881290072599533845577502259964522 (0x8F6E68C84799EC0BBED3AC9BDFD86A6A)
Complete name : F:VideoBeauty.and.the.Beast.2017.Lic.BDREMUX.1080p.ExKinoRay.mkv
Format : Matroska
Format version : Version 4 / Version 2
File size : 27.0 GiB
Duration : 2 h 9 min
Overall bit rate mode : Variable
Overall bit rate : 29.8 Mb/s
Encoded date : UTC 2017-06-24 05:41:16
Writing application : mkvmerge v12.0.0 ('Trust / Lust') 64bit
Writing library : libebml v1.3.4 + libmatroska v1.4.5

Video
ID : 1
Format : AVC
Format/Info : Advanced Video Codec
Format profile : High@L4.1
Format settings, CABAC : Yes
Format settings, ReFrames : 4 frames
Format settings, GOP : M=1, N=12
Codec ID : V_MPEG4/ISO/AVC
Duration : 2 h 9 min
Bit rate mode : Variable
Bit rate : 24.0 Mb/s
Maximum bit rate : 35.0 Mb/s
Width : 1 920 pixels
Height : 1 080 pixels
Display aspect ratio : 16:9
Frame rate mode : Constant
Frame rate : 23.976 (24000/1001) FPS
Color space : YUV
Chroma subsampling : 4:2:0
Bit depth : 8 bits
Scan type : Progressive
Bits/(Pixel*Frame) : 0.483
Stream size : 21.7 GiB (81%)
Language : English
Default : Yes
Forced : No

Audio #1
ID : 2
Format : AC-3
Format/Info : Audio Coding 3
Format settings, Endianness : Big
Codec ID : A_AC3
Duration : 2 h 9 min
Bit rate mode : Constant
Bit rate : 640 kb/s
Channel(s) : 6 channels
Channel positions : Front: L C R, Side: L R, LFE
Sampling rate : 48.0 kHz
Frame rate : 31.250 FPS (1536 spf)
Bit depth : 16 bits
Compression mode : Lossy
Stream size : 592 MiB (2%)
Title : Dub [License]
Language : Russian
Service kind : Complete Main
Default : Yes
Forced : No

Audio #2
ID : 3
Format : DTS
Format/Info : Digital Theater Systems
Format profile : MA / Core
Mode : 16
Format settings, Endianness : Big
Codec ID : A_DTS
Duration : 2 h 9 min
Bit rate mode : Variable / Constant
Bit rate : 5 174 kb/s / 1 509 kb/s
Channel(s) : 8 channels / 6 channels
Channel positions : Front: L C R, Side: L R, Back: L R, LFE / Front: L C R, Side: L R, LFE
Sampling rate : 48.0 kHz
Frame rate : 93.750 FPS (512 spf)
Bit depth : 24 bits
Compression mode : Lossless / Lossy
Stream size : 4.67 GiB (17%)
Title : Original
Language : English
Default : No
Forced : No

Text #1
ID : 4
Format : UTF-8
Codec ID : S_TEXT/UTF8
Codec ID/Info : UTF-8 Plain Text
Duration : 2 h 1 min
Bit rate : 77 b/s
Count of elements : 1596
Stream size : 69.4 KiB (0%)
Title : Full
Language : Russian
Default : No
Forced : No

Text #2
ID : 5
Format : UTF-8
Codec ID : S_TEXT/UTF8
Codec ID/Info : UTF-8 Plain Text
Duration : 2 h 8 min
Bit rate : 47 b/s
Count of elements : 1776
Stream size : 44.5 KiB (0%)
Title : Full
Language : English
Default : No
Forced : No

Text #3
ID : 6
Format : UTF-8
Codec ID : S_TEXT/UTF8
Codec ID/Info : UTF-8 Plain Text
Duration : 2 h 8 min
Bit rate : 48 b/s
Count of elements : 1778
Stream size : 45.0 KiB (0%)
Title : SDH
Language : English
Default : No
Forced : No

Menu
00:00:00.000 : en:Chapter 01
00:04:36.276 : en:Chapter 02
00:08:06.527 : en:Chapter 03
00:11:18.260 : en:Chapter 04
00:15:21.545 : en:Chapter 05
00:18:57.386 : en:Chapter 06
00:25:05.921 : en:Chapter 07
00:31:41.566 : en:Chapter 08
00:36:08.708 : en:Chapter 09
00:42:32.258 : en:Chapter 10
00:47:01.318 : en:Chapter 11
00:54:44.990 : en:Chapter 12
01:00:43.556 : en:Chapter 13
01:07:40.931 : en:Chapter 14
01:14:38.223 : en:Chapter 15
01:19:43.695 : en:Chapter 16
01:22:02.751 : en:Chapter 17
01:28:53.369 : en:Chapter 18
01:34:01.302 : en:Chapter 19
01:38:10.175 : en:Chapter 20
01:45:23.692 : en:Chapter 21
01:49:13.964 : en:Chapter 22
01:55:54.197 : en:Chapter 23
01:58:49.497 : en:Chapter 24


Релиз от: Автор релиза:


_________________
Проголосуй за трекер Открытый торрент трекер - RUS-MEDIA.ORG

Проголосуй Открытый торрент трекер - RUS-MEDIA.ORG


Вернуться к началу
 Профиль Отправить личное сообщение  
 
   Похожие торренты   Автор   Торрент   Размер 
В этой теме нет новых непрочитанных сообщений. Красавица и чудовище / Beauty and the Beast [Мюзикл, фэнтези, мелодрама, 2017] BDRip 1080p, Dub [Лицензия]

salma3

413 | 785

8.38 ГБ

В этой теме нет новых непрочитанных сообщений. Красавица и чудовище / Beauty and the Beast [Мюзикл, фэнтези, мелодрама, 2017] BDRip 1080p, Dub [Лицензия] [3D-Video]

salma3

75 | 117

9.26 ГБ

В этой теме нет новых непрочитанных сообщений. Красавица и чудовище / Beauty and the Beast [Мюзикл, фэнтези, мелодрама, 2017] BDRip, Dub [Лицензия]

salma3

322 | 82

2.18 ГБ

В этой теме нет новых непрочитанных сообщений. Красавица и чудовище / Beauty and the Beast [Мюзикл, фэнтези, мелодрама, 2017] BDRip-AVC, Dub [Лицензия]

salma3

139 | 51

2.84 ГБ

В этой теме нет новых непрочитанных сообщений. Красавица и чудовище / Beauty and the Beast [Мюзикл, фэнтези, мелодрама, 2017] BDRip 720p, Dub [Лицензия]

salma3

318 | 579

4.77 ГБ

В этой теме нет новых непрочитанных сообщений. Красавица и чудовище / Beauty and the Beast [Мюзикл, фэнтези, мелодрама, семейный, 2017] DVD5, Dub

salma3

95 | 28

4.37 ГБ

В этой теме нет новых непрочитанных сообщений. Красавица и чудовище / Beauty and the Beast [Мюзикл, фэнтези, мелодрама, 2017] BDRip, Dub [iTunes]

salma3

13592 | 2176

1.46 ГБ


Начать новую тему Ответить на тему  [ 1 сообщение ] 




Для Мосгорсуда, Роскомнадзора и рекламодателей:: mosgorsud-torrent[собачка]yandex.ru
cron