Торрент файл
скачать торрент магнет ссылка Добавлен: 21 июн 2017, 21:58
Размер: 3.4 ГБ
Сидеров: 690
Личеров: 331
Статус: (salma3)
Автор

СообщениеДобавлено: 21 июн 2017, 21:58 

Не в сети
Супермодератор
Аватара пользователя
Дата регистрации:
15 фев 2012, 16:44
Возраст: 28
Спасибо: 7223 / 2147
Сообщения: 67717
Год выхода: 2017
Жанр: фантастика
Режиссер: Мауро Боррелли

В ролях: АрДжей Митти, Уэсли Снайпс, Джедидайя Гудакр, Нико Пепадж, Грэхэм Шилз, Hannah Rose May, Виселос Реон Шеннон, Элиша Криис, Лаура Билгери, Guy Griffithe

О фильме: Пока группа друзей собирается в День Труда отдохнуть на острове - по всему миру происходят странные метеорологические явления, а обитающий в окрестностях того же озера опальный астронавт готовится к возвращению неких Посетителей, с которыми у него личные счеты.



Выпущено: Канада / Bridgegate Pictures
Продолжительность: 01:32:23
Озвучивание: Любительское (многоголосое) ["Синема УС"]
Файл
Качество:WEB-DL 1080p
Видео: AVC, 1904x792 (2.40:1), 23.976 fps, 4 878 Kbps (0.132 bit/pixel)
Аудио: AC-3, 48.0 KHz, 2 ch, 384 Kbps, CBR

ПРИСУТСТВУЕТ РЕКЛАМА!

Общее
Уникальный идентификатор : 233721481124402749345894053527157003303 (0xAFD51EB2B5D45C929D24117E9244D427)
Полное имя : C:NNMВозвращениеVozvrashenie 2017 WEB-DL 1080p-LQ.mkv
Формат : Matroska
Версия формата : Version 2
Размер файла : 3,40 Гбайт
Продолжительность : 1 ч. 32 м.
Режим общего битрейта : Переменный
Общий поток : 5264 Кбит/сек
Дата кодирования : UTC 2017-06-17 18:16:46
Программа кодирования : mkvmerge v8.3.0 ('Over the Horizon') 64bit
Библиотека кодирования : libebml v1.3.1 + libmatroska v1.4.2

Видео
Идентификатор : 1
Формат : AVC
Формат/Информация : Advanced Video Codec
Профиль формата : High@L4.1
Параметр CABAC формата : Да
Параметр ReFrames формата : 5 кадров
Идентификатор кодека : V_MPEG4/ISO/AVC
Продолжительность : 1 ч. 32 м.
Вид битрейта : Переменный
Битрейт : 4878 Кбит/сек
Максимальный битрейт : 5500 Кбит/сек
Ширина : 1904 пикселя
Высота : 792 пикселя
Соотношение сторон : 2,40:1
Режим частоты кадров : Постоянный
Частота кадров : 23,976 (24000/1001) кадра/сек
Стандарт вещания : Component
Цветовое пространство : YUV
Субдискретизация насыщенности : 4:2:0
Битовая глубина : 8 бит
Тип развёртки : Прогрессивная
Бит/(Пиксели*Кадры) : 0.135
Размер потока : 3,15 Гбайт (93%)
Default : Да
Forced : Нет
Цветовой диапазон : Limited
Основные цвета : BT.709
Характеристики трансфера : BT.709
Коэффициенты матрицы : BT.709

Аудио
Идентификатор : 2
Формат : AC-3
Формат/Информация : Audio Coding 3
Расширение режима : CM (complete main)
Параметр Endianness формата : Big
Идентификатор кодека : A_AC3
Продолжительность : 1 ч. 32 м.
Вид битрейта : Постоянный
Битрейт : 384 Кбит/сек
Каналы : 2 канала
Расположение каналов : Front: L R
Частота : 48,0 КГц
Частота кадров : 31,250 кадров/сек (1536 spf)
Битовая глубина : 16 бит
Метод сжатия : С потерями
Размер потока : 254 Мбайт (7%)
Default : Да
Forced : Нет


_________________
Проголосуй за трекер Открытый торрент трекер - RUS-MEDIA.ORG

Проголосуй Открытый торрент трекер - RUS-MEDIA.ORG


Вернуться к началу
 Профиль Отправить личное сообщение  
 
   Похожие торренты   Автор   Торрент   Размер 
В этой теме нет новых непрочитанных сообщений. Вспомнить всё: Похищение / The Recall [фантастика, 2017] WEB-DLRip, Mvo

salma3

3355 | 1464

1.37 ГБ

В этой теме нет новых непрочитанных сообщений. Вспомнить всё / Total Recall [Фантастика, Боевик, Приключения, 1990] BDRemux 1080p, Mvo

salma3

0 | 0

19.59 ГБ

В этой теме нет новых непрочитанных сообщений. Вспомнить всё / Total Recall [фантастика, боевик, 1990] Blu-ray 1080p, Mvo [Ultimate Rekall Edition]

salma3

39 | 55

43.8 ГБ

В этой теме нет новых непрочитанных сообщений. Вспомнить всё / Total Recall [Фантастика, боевик, триллер, 1990] BDRip-AVC, Mvo

salma3

143 | 30

746.44 МБ

В этой теме нет новых непрочитанных сообщений. Вспомнить всё / Total Recall [Фантастика, боевик, триллер, 1990] BDRip 720p, Mvo

salma3

31 | 7

9.45 ГБ

В этой теме нет новых непрочитанных сообщений. Возвращение / The Recall [фантастика, 2017] BDRip 720p, Mvo

salma3

229 | 18

2.7 ГБ

В этой теме нет новых непрочитанных сообщений. Вспомнить заново / Rememory [фантастика, драма, детектив, 2017] WEBDLRip-AVC, Mvo

salma3

78 | 18

1.45 ГБ


Начать новую тему Ответить на тему  [ 1 сообщение ] 




Для Мосгорсуда, Роскомнадзора и рекламодателей:: mosgorsud-torrent[собачка]yandex.ru
cron