Торрент файл
скачать торрент магнет ссылка Добавлен: 18 июн 2017, 23:40
Размер: 6.66 ГБ
Сидеров: 870
Личеров: 376
Статус: (salma3)
Автор

СообщениеДобавлено: 18 июн 2017, 23:40 

Не в сети
Супермодератор
Аватара пользователя
Дата регистрации:
15 фев 2012, 16:44
Возраст: 28
Спасибо: 6474 / 2129
Сообщения: 40978
Год выхода: 2017
Жанр: криминал
Режиссер: Ронни Томпсон

В ролях: Мэттью Гуд, Джоэли Ричардсон, Стивен Мойер, Клайв Расселл, Фил Дэниелс, Ларри Ламб, Дэвид Колдер, Марк Купер Харрис, Джек Дулан, Дэниэл Иган

О фильме:
В апреле 2015 подземное хранилище ценностей в Лондонском Хаттен Гарден было ограблено четырьмя пожилыми мужчинами. Общая сумма награбленного составила порядка 200 миллионов фунтов, что называют крупнейшим ограблением в английской истории.



Выпущено: Великобритания / Fiction Films
Продолжительность: 01:33:33
Озвучивание: Любительское (многоголосое)["Синема УС"]

Файл
Качество:BDRip 1080p
Формат:mkv
Видео:AVC, 1920x1040 (1.85:1), 9538 kbps (0.199 b/px), 23.976 fps
Аудио :AC3, 448 kbps (CBR), 48.0 KHz (16 bits), 2 ch, Russian

ПРИСУТСТВУЕТ РЕКЛАМА!

General
Unique ID : 222244709512737094379180143380771704786 (0xA732C62BA0F79104B34E5B2B9C550FD2)
Complete name : E:фильмыThe.hatton.garden.job.2017.P.BDRip.1O8Op_KOSHARA.mkv
Format : Matroska
Format version : Version 2
File size : 6.66 GiB
Duration : 1h 33mn
Overall bit rate mode : Variable
Overall bit rate : 10.2 Mbps
Encoded date : UTC 2017-06-17 18:37:07
Writing application : mkvmerge v8.3.0 ('Over the Horizon') 64bit
Writing library : libebml v1.3.1 + libmatroska v1.4.2
DURATION : 01:33:33.274000000
NUMBER_OF_FRAMES : 134584
NUMBER_OF_BYTES : 6833003148
_STATISTICS_WRITING_APP : mkvmerge v8.3.0 ('Over the Horizon') 64bit
_STATISTICS_WRITING_DATE_UTC : 2017-06-17 18:37:07
_STATISTICS_TAGS : BPS DURATION NUMBER_OF_FRAMES NUMBER_OF_BYTES

Video
ID : 1
Format : AVC
Format/Info : Advanced Video Codec
Format profile : High@L4.1
Format settings, CABAC : Yes
Format settings, ReFrames : 4 frames
Codec ID : V_MPEG4/ISO/AVC
Duration : 1h 33mn
Bit rate mode : Variable
Bit rate : 9 538 Kbps
Maximum bit rate : 11.0 Mbps
Width : 1 920 pixels
Height : 1 040 pixels
Display aspect ratio : 1.85:1
Frame rate mode : Constant
Frame rate : 23.976 fps
Standard : Component
Color space : YUV
Chroma subsampling : 4:2:0
Bit depth : 8 bits
Scan type : Progressive
Bits/(Pixel*Frame) : 0.199
Stream size : 6.23 GiB (94%)
Default : Yes
Forced : No
Color primaries : BT.709
Transfer characteristics : BT.709
Matrix coefficients : BT.709

Audio
ID : 2
Format : AC-3
Format/Info : Audio Coding 3
Mode extension : CM (complete main)
Format settings, Endianness : Big
Codec ID : A_AC3
Duration : 1h 33mn
Bit rate mode : Constant
Bit rate : 448 Kbps
Channel(s) : 2 channels
Channel positions : Front: L R
Sampling rate : 48.0 KHz
Bit depth : 16 bits
Compression mode : Lossy
Stream size : 300 MiB (4%)
Default : Yes
Forced : No


_________________
Проголосуй за трекер Открытый торрент трекер - RUS-MEDIA.ORG

Проголосуй Открытый торрент трекер - RUS-MEDIA.ORG



реклама партнёра


Вернуться к началу
 Профиль Отправить личное сообщение  
 
   Похожие торренты   Автор   Торрент   Размер 
В этой теме нет новых непрочитанных сообщений. Ограбление в Хаттон Гарден / The Hatton Garden Job [криминал, 2017] HDRip, Mvo

salma3

2638 | 1359

1.37 ГБ

В этой теме нет новых непрочитанных сообщений. Большое скандинавское ограбление / Ограбление / Nokas [боевик, триллер, криминал, биография, 2010] BDRip 1080p, Avo

salma3

129 | 36

7.48 ГБ

В этой теме нет новых непрочитанных сообщений. Семейное ограбление / Family Heist / Mes trésors [комедия, 2017] BDRip 1080p, Dub [Лицензия]

salma3

327 | 213

6.49 ГБ

В этой теме нет новых непрочитанных сообщений. Ограбление по-американски / American Heist (Сарик Андреасян) [триллер, криминал, драма, 2014] BDRip 1080p, dub [Чистый звук]

Dracon

27 | 3

11.28 ГБ

В этой теме нет новых непрочитанных сообщений. Ограбление по-итальянски / The Italian Job [боевик, триллер, криминал, 2003] BDRemux 1080p, Dub

salma3

21 | 17

53.04 ГБ

В этой теме нет новых непрочитанных сообщений. Ограбление / Top Coat Cash [боевик, драма, криминал, 2017] WEB-DLRip, Mvo

salma3

1387 | 412

1.37 ГБ

В этой теме нет новых непрочитанных сообщений. Семейное ограбление / Family Heist / Mes trésors [комедия, 2017] WEB-DL 1080p, Dub [iTunes]

salma3

18540 | 4785

3.25 ГБ


Начать новую тему Ответить на тему  [ 1 сообщение ] 




Для Мосгорсуда, Роскомнадзора и рекламодателей:: mosgorsud-torrent[собачка]yandex.ru