Торрент файл
скачать торрент магнет ссылка Добавлен: 16 июн 2017, 12:06
Размер: 8.94 ГБ
Сидеров: 98
Личеров: 28
Статус: (salma3)
Автор

СообщениеДобавлено: 16 июн 2017, 12:06 

Не в сети
Супермодератор
Аватара пользователя
Дата регистрации:
15 фев 2012, 16:44
Возраст: 28
Спасибо: 7199 / 2147
Сообщения: 64757
Страна:Япония
[color=Green]Год выпуска:
1997
Жанр: триллер, драма, мелодрама, криминал
Продолжительность: 01:43:08
Режиссер: Такеши Китано

В ролях: Такеши Китано, Каёко Кисимото, Рен Осуги, Сусуму Тэрадзима, Тэцу Ватанабэ, Хакурю, Ясуэй Якушидзи, Таро Ицуми, Кэнити Ядзима

Описание: Это история бывшего полицейского детектива Ниши, который сам идет на преступление и вступает в кровавый конфликт с якудза — японской мафией, ради того, чтобы помочь самым важным людям в его жизни — вдове убитого коллеги, тяжело раненому и парализованному другу, и своей смертельно больной жене. Вместе с ней он отправляется в последнее идиллическое путешествие по Японии, безжалостно и хладнокровно расправляясь со всеми, кто пытается встать у него на пути.
Японское слово hanabi означает «фейерверк», но написанное через дефис оно делится на составные части. Hana — «цветы», символ жизни и любви, и bi — «огонь», символ жестокости и насильственной смерти...



Перевод: Профессиональный (двухголосый, закадровый) | R5
Субтитры: русские, английские


Качество: BDRip 720р
Видео: 1280x690 (1.85:1), 23.976 fps, MPEG-4 AVC ~10.0 Мbps avg
Аудио №1: 48.0 kHz, AC3 Dolby Digital, 3/2 (L,C,R,l,r) + LFE ch, ~448 kbps | RUS / DVO
Аудио №2: 48.0 kHz, Digital Theater Systems, 2/0 (L,R) ch, ~1509 kbps / 24-bit | JAP / original @ BD
Аудио №3: 48.0 kHz, AC3 Dolby Digital, 3/2 (L,C,R,l,r) + LFE ch, ~448 kbps | JAP / original @ DVD
Формат субтитров: UTF-8 Plain Text
Дата премьеры (мир): 3 сентября 1997


Приз Венецианского кинофестиваля, 1997 год
» Золотой лев
Релиз от:
General
Уникальный идентификатор : 215204813737641245036398913637278987596 (0xA1E6F082C4964F6DBB253B25D042B54C)
Полное имя : Fireworks.1997.BDRip.720p_by_vedigo.mkv
Формат : Matroska
Версия формата : Version 4 / Version 2
Размер файла : 8,94 Гбайт
Продолжительность : 1 ч. 43 м.
Общий поток : 12,4 Мбит/сек
Дата кодирования : UTC 2016-05-07 07:17:27
Программа кодирования : mkvmerge v9.1.0 ('Little Earthquakes') 64bit
Библиотека кодирования : libebml v1.3.3 + libmatroska v1.4.4
Видео
Идентификатор : 1
Формат : AVC
Формат/Информация : Advanced Video Codec
Профиль формата : High@L4.1
Параметр CABAC формата : Да
Параметр ReFrames формата : 9 кадров
Идентификатор кодека : V_MPEG4/ISO/AVC
Продолжительность : 1 ч. 43 м.
Битрейт : 10000 Кбит/сек
Ширина : 1280 пикселей
Высота : 690 пикселей
Соотношение сторон : 1,85:1
Режим частоты кадров : Постоянный
Частота кадров : 23,976 (24000/1001) кадра/сек
Цветовое пространство : YUV
Субдискретизация насыщенности : 4:2:0
Битовая глубина : 8 бит
Тип развёртки : Прогрессивная
Бит/(Пиксели*Кадры) : 0.472
Размер потока : 7,20 Гбайт (81%)
Заголовок : Fireworks.1997.BDRip.720p_by_vedigo
Библиотека кодирования : x264 core 148 r2665 a01e339
Настройки программы : cabac=1 / ref=9 / deblock=1:-3:-3 / analyse=0x3:0x133 / me=umh / subme=11 / psy=1 / psy_rd=1.00:0.10 / mixed_ref=1 / me_range=48 / chroma_me=1 / trellis=2 / 8x8dct=1 / cqm=0 / deadzone=21,11 / fast_pskip=0 / chroma_qp_offset=-3 / threads=12 / lookahead_threads=3 / sliced_threads=0 / nr=0 / decimate=1 / interlaced=0 / bluray_compat=0 / constrained_intra=0 / bframes=12 / b_pyramid=2 / b_adapt=2 / b_bias=0 / direct=3 / weightb=1 / open_gop=0 / weightp=2 / keyint=250 / keyint_min=23 / scenecut=40 / intra_refresh=0 / rc_lookahead=40 / rc=2pass / mbtree=0 / bitrate=10000 / ratetol=1.0 / qcomp=0.60 / qpmin=0 / qpmax=69 / qpstep=4 / cplxblur=20.0 / qblur=0.5 / vbv_maxrate=50000 / vbv_bufsize=62500 / nal_hrd=none / filler=0 / ip_ratio=1.40 / pb_ratio=1.30 / aq=1:0.90
Default : Да
Forced : Нет
Аудио #1
Идентификатор : 2
Формат : AC-3
Формат/Информация : Audio Coding 3
Расширение режима : CM (complete main)
Параметр Endianness формата : Big
Идентификатор кодека : A_AC3
Продолжительность : 1 ч. 43 м.
Вид битрейта : Постоянный
Битрейт : 448 Кбит/сек
Каналы : 6 каналов
Расположение каналов : Front: L C R, Side: L R, LFE
Частота : 48,0 КГц
Частота кадров : 31,250 кадров/сек (1536 spf)
Метод сжатия : С потерями
Размер потока : 331 Мбайт (4%)
Заголовок : DVO
Язык : Russian
Default : Да
Forced : Нет
Аудио #2
Идентификатор : 3
Формат : DTS
Формат/Информация : Digital Theater Systems
Режим : 16
Параметр Endianness формата : Big
Идентификатор кодека : A_DTS
Продолжительность : 1 ч. 43 м.
Вид битрейта : Постоянный
Битрейт : 1509 Кбит/сек
Каналы : 2 канала
Расположение каналов : Front: L R
Частота : 48,0 КГц
Частота кадров : 93,750 кадра/сек (512 spf)
Битовая глубина : 24 бит
Метод сжатия : С потерями
Размер потока : 1,09 Гбайт (12%)
Заголовок : original @ BD
Язык : Japanese
Default : Нет
Forced : Нет
Аудио #3
Идентификатор : 4
Формат : AC-3
Формат/Информация : Audio Coding 3
Расширение режима : CM (complete main)
Параметр Endianness формата : Big
Идентификатор кодека : A_AC3
Продолжительность : 1 ч. 43 м.
Вид битрейта : Постоянный
Битрейт : 448 Кбит/сек
Каналы : 6 каналов
Расположение каналов : Front: L C R, Side: L R, LFE
Частота : 48,0 КГц
Частота кадров : 31,250 кадров/сек (1536 spf)
Метод сжатия : С потерями
Размер потока : 331 Мбайт (4%)
Заголовок : original @ DVD
Язык : Japanese
Default : Нет
Forced : Нет
Текст #1
Идентификатор : 5
Формат : UTF-8
Идентификатор кодека : S_TEXT/UTF8
Идентификатор кодека/Информация : UTF-8 Plain Text
Продолжительность : 1 ч. 34 м.
Битрейт : 26 бит/сек
Count of elements : 415
Размер потока : 18,6 Кбайт (0%)
Заголовок : subtitle rus
Язык : Russian
Default : Нет
Forced : Нет
Текст #2
Идентификатор : 6
Формат : UTF-8
Идентификатор кодека : S_TEXT/UTF8
Идентификатор кодека/Информация : UTF-8 Plain Text
Продолжительность : 1 ч. 42 м.
Битрейт : 14 бит/сек
Count of elements : 417
Размер потока : 10,6 Кбайт (0%)
Заголовок : subtitle eng
Язык : English
Default : Нет
Forced : Нет


_________________
Проголосуй за трекер Открытый торрент трекер - RUS-MEDIA.ORG

Проголосуй Открытый торрент трекер - RUS-MEDIA.ORG


Вернуться к началу
 Профиль Отправить личное сообщение  
 
   Похожие торренты   Автор   Торрент   Размер 
В этой теме нет новых непрочитанных сообщений. Колония / Double Team [Фантастика, Боевик, Триллер, 1997] BDRip 720р, Dub+Mvo+Dvo+Avo+Sub

salma3

60 | 9

4.27 ГБ

В этой теме нет новых непрочитанных сообщений. Вопросы и ответы / Q & A [Триллер, драма, криминал, 1990] BDRip 720р, Mvo

salma3

14 | 11

7.83 ГБ

В этой теме нет новых непрочитанных сообщений. Убить короля / Номер в Шангри-Ла / Kill the King / Shangri-La Suite [Драма, мелодрама, криминал, 2015] BDRip 720р, Avo

salma3

7 | 4

10.35 ГБ

В этой теме нет новых непрочитанных сообщений. Майами Блюз / Miami Blues [Триллер, драма, мелодрама, 1990] BDRip 720р, Dub

salma3

10 | 2

6.21 ГБ

В этой теме нет новых непрочитанных сообщений. Сикарии: Ночью в тишине / Sicarivs: La noche y el silencio (Триллер, криминал, драма, 2015) BDRip 720р | A

marya111

213 | 37

4.27 ГБ

В этой теме нет новых непрочитанных сообщений. Обнаженное оружие / Chek law dak gung / Naked Weapon [Боевик, триллер, мелодрама, драма, 2002] BDRip 720р, Mvo+Sub

salma3

151 | 49

8.21 ГБ

В этой теме нет новых непрочитанных сообщений. Секреты Лос-Анджелеса / L.A. Confidential [триллер, драма, криминал, 1997] BDRip, Dvo [Twister]

salma3

103 | 24

2.18 ГБ


Начать новую тему Ответить на тему  [ 1 сообщение ] 




Для Мосгорсуда, Роскомнадзора и рекламодателей:: mosgorsud-torrent[собачка]yandex.ru
cron