Торрент файл
скачать торрент магнет ссылка Добавлен: 16 июн 2017, 12:04
Размер: 11.1 ГБ
Сидеров: 100
Личеров: 32
Статус: (salma3)
Автор

СообщениеДобавлено: 16 июн 2017, 12:04 

Не в сети
Супермодератор
Аватара пользователя
Дата регистрации:
15 фев 2012, 16:44
Возраст: 29
Спасибо: 7377 / 2147
Сообщения: 75969
Камера 211 / Celda 211
Страна: Испания Франция
Год выпуска: 2009
Жанр: боевик, триллер, драма
Продолжительность: 01:47:55
Режиссер: Даниэль Монсон

В ролях: Луис Тосар, Альберто Амман, Антонио Ресинес, Мануэль Морон, Карлос Бардем, Марта Этура, Луис Саера, Фернандо Сото, Маноло Соло

Описание: Хуан — полицейский, пришёл наниматься надзирателем в тюрьму. Знакомство с новым рабочим местом оказалось роковым. Он попал в переделку, и ему пришлось прикинуться заключённым, чтобы спасти свою жизнь. Этот шаг поставил его на тонкую грань выживаемости...



Перевод: Профессиональный (дублированный) + Авторский (одноголосый) | Юрий Немахов
Субтитры: русские, английские
Качество: BDRip 1080p
Видео: 1920x1038 (1.85:1), 25.000 fps, MPEG-4 AVC ~11.3 Мbps avg
Аудио №1: 48.0 kHz, AC3 Dolby Digital, 3/2 (L,C,R,l,r) + LFE ch, ~384 kbps | DUB
Аудио №2: 48.0 kHz, Digital Theater Systems, 3/2 (L,C,R,l,r) + LFE ch, ~1509 kbps / 16-bit | AVO
Аудио №3: 48.0 kHz, Digital Theater Systems, 3/2 (L,C,R,l,r) + LFE ch, ~1509 kbps / 16-bit | SPA
Формат субтитров: UTF-8 Plain Text

Релиз от: msltel
General
Уникальный идентификатор : 253742953379528337405353038405989824177 (0xBEE51D7E57C4980BB78D4D5CF6EBF6B1)
Полное имя : Камера 211.2009.BDRip.1080p by msltel.mkv
Формат : Matroska
Версия формата : Version 4 / Version 2
Размер файла : 11,1 Гбайт
Продолжительность : 1 ч. 47 м.
Общий поток : 14,7 Мбит/сек
Название фильма : Rip by msltel
Дата кодирования : UTC 2017-06-13 11:10:00
Программа кодирования : mkvmerge v8.2.0 ('World of Adventure') 64bit
Библиотека кодирования : libebml v1.3.1 + libmatroska v1.4.2
Видео
Идентификатор : 1
Формат : AVC
Формат/Информация : Advanced Video Codec
Профиль формата : High@L4.1
Параметр CABAC формата : Да
Параметр ReFrames формата : 4 кадра
Идентификатор кодека : V_MPEG4/ISO/AVC
Продолжительность : 1 ч. 47 м.
Битрейт : 11,3 Мбит/сек
Ширина : 1920 пикселей
Высота : 1038 пикселей
Соотношение сторон : 1,85:1
Режим частоты кадров : Постоянный
Частота кадров : 25,000 кадров/сек
Цветовое пространство : YUV
Субдискретизация насыщенности : 4:2:0
Битовая глубина : 8 бит
Тип развёртки : Прогрессивная
Бит/(Пиксели*Кадры) : 0.227
Размер потока : 8,53 Гбайт (77%)
Библиотека кодирования : x264 core 146 r2538 121396c
Настройки программы : cabac=1 / ref=4 / deblock=1:-3:-2 / analyse=0x3:0x113 / me=umh / subme=11 / psy=1 / psy_rd=1.00:0.15 / mixed_ref=1 / me_range=32 / chroma_me=1 / trellis=2 / 8x8dct=1 / cqm=0 / deadzone=21,11 / fast_pskip=0 / chroma_qp_offset=-3 / threads=6 / lookahead_threads=1 / sliced_threads=0 / nr=0 / decimate=1 / interlaced=0 / bluray_compat=0 / constrained_intra=0 / bframes=8 / b_pyramid=2 / b_adapt=2 / b_bias=0 / direct=1 / weightb=1 / open_gop=0 / weightp=2 / keyint=240 / keyint_min=24 / scenecut=40 / intra_refresh=0 / rc_lookahead=40 / rc=crf / mbtree=0 / crf=16.1 / qcomp=0.60 / qpmin=0 / qpmax=69 / qpstep=4 / vbv_maxrate=62500 / vbv_bufsize=78125 / crf_max=0.0 / nal_hrd=none / filler=0 / ip_ratio=1.40 / pb_ratio=1.30 / aq=1:1.00
Язык : Spanish
Default : Да
Forced : Нет
Аудио #1
Идентификатор : 2
Формат : AC-3
Формат/Информация : Audio Coding 3
Параметр Endianness формата : Big
Идентификатор кодека : A_AC3
Продолжительность : 1 ч. 47 м.
Вид битрейта : Постоянный
Битрейт : 384 Кбит/сек
Каналы : 6 каналов
Расположение каналов : Front: L C R, Side: L R, LFE
Частота : 48,0 КГц
Частота кадров : 31,250 кадров/сек (1536 spf)
Битовая глубина : 16 бит
Метод сжатия : С потерями
Размер потока : 296 Мбайт (3%)
Заголовок : DUB
Язык : Russian
Default : Да
Forced : Нет
Аудио #2
Идентификатор : 3
Формат : DTS
Формат/Информация : Digital Theater Systems
Режим : 16
Параметр Endianness формата : Big
Идентификатор кодека : A_DTS
Продолжительность : 1 ч. 47 м.
Вид битрейта : Постоянный
Битрейт : 1509 Кбит/сек
Каналы : 6 каналов
Расположение каналов : Front: L C R, Side: L R, LFE
Частота : 48,0 КГц
Частота кадров : 93,750 кадра/сек (512 spf)
Битовая глубина : 16 бит
Метод сжатия : С потерями
Размер потока : 1,14 Гбайт (10%)
Заголовок : AVO (Юрий Немахов)
Язык : Russian
Default : Нет
Forced : Нет
Аудио #3
Идентификатор : 4
Формат : DTS
Формат/Информация : Digital Theater Systems
Режим : 16
Параметр Endianness формата : Big
Идентификатор кодека : A_DTS
Продолжительность : 1 ч. 47 м.
Вид битрейта : Постоянный
Битрейт : 1509 Кбит/сек
Каналы : 6 каналов
Расположение каналов : Front: L C R, Side: L R, LFE
Частота : 48,0 КГц
Частота кадров : 93,750 кадра/сек (512 spf)
Битовая глубина : 16 бит
Метод сжатия : С потерями
Размер потока : 1,14 Гбайт (10%)
Заголовок : original
Язык : Spanish
Default : Нет
Forced : Нет
Текст #1
Идентификатор : 5
Формат : UTF-8
Идентификатор кодека : S_TEXT/UTF8
Идентификатор кодека/Информация : UTF-8 Plain Text
Продолжительность : 1 ч. 39 м.
Битрейт : 119 бит/сек
ElementCount : 1325
Размер потока : 86,8 Кбайт (0%)
Заголовок : русские
Язык : Russian
Default : Нет
Forced : Нет
Текст #2
Идентификатор : 6
Формат : UTF-8
Идентификатор кодека : S_TEXT/UTF8
Идентификатор кодека/Информация : UTF-8 Plain Text
Продолжительность : 1 ч. 38 м.
Битрейт : 58 бит/сек
ElementCount : 1320
Размер потока : 42,1 Кбайт (0%)
Заголовок : английские
Язык : English
Default : Нет
Forced : Нет
Меню
00:00:00.000 : :Chapter 01
00:07:51.000 : :Chapter 02
00:18:34.000 : :Chapter 03
00:28:01.000 : :Chapter 04
00:35:38.400 : :Chapter 05
00:45:24.400 : :Chapter 06
00:56:24.520 : :Chapter 07
01:04:47.800 : :Chapter 08
01:13:29.800 : :Chapter 09
01:21:16.000 : :Chapter 10
01:30:45.000 : :Chapter 11
01:42:33.000 : :Chapter 12
01:47:38.640 : :Chapter 13


_________________
Проголосуй за трекер Открытый торрент трекер - RUS-MEDIA.ORG

Проголосуй Открытый торрент трекер - RUS-MEDIA.ORG


Вернуться к началу
 Профиль Отправить личное сообщение  
 
   Похожие торренты   Автор   Торрент   Размер 
В этой теме нет новых непрочитанных сообщений. Камера 211 / Celda 211 [боевик, триллер, драма, 2009] BDRip 720p, Dub

salma3

154 | 38

4.48 ГБ

В этой теме нет новых непрочитанных сообщений. Камера / The Chamber [Триллер, драма, экранизация, 1996] WEB-DL 1080p, Dvo

salma3

0 | 0

10.72 ГБ

В этой теме нет новых непрочитанных сообщений. WAZ: Камера пыток / w Delta z [триллер, драма, криминал, 2007] BDRip 720p, Dub+Sub

salma3

55 | 31

5.1 ГБ

В этой теме нет новых непрочитанных сообщений. Наперегонки со смертью / Dead Man Running [боевик, триллер, драма, криминал, 2009] BDRip 1080p, Mvo

salma3

17 | 3

7.26 ГБ

В этой теме нет новых непрочитанных сообщений. Опасная гастроль / Command Performance [Боевик, триллер, драма, 2009] BDRip 1080p, Dvo [Лицензия]

salma3

0 | 0

8.24 ГБ

В этой теме нет новых непрочитанных сообщений. Камера / The Chamber [Триллер, 2016] BDRip 720p, Mvo

salma3

920 | 408

3.49 ГБ

В этой теме нет новых непрочитанных сообщений. Уличный боец / Street Fighter: The Legend of Chun-Li [боевик, триллер, драма, 2009] BDRip 1080p, Mvo

salma3

29 | 16

6.53 ГБ


Начать новую тему Ответить на тему  [ 1 сообщение ] 




Для Мосгорсуда, Роскомнадзора и рекламодателей:: mosgorsud-torrent[собачка]yandex.ru
cron