Торрент файл
скачать торрент магнет ссылка Добавлен: 14 июн 2017, 03:29
Размер: 3.47 ГБ
Сидеров: 41
Личеров: 30
Статус: (salma3)
Автор

СообщениеДобавлено: 14 июн 2017, 03:29 

Не в сети
Супермодератор
Аватара пользователя
Дата регистрации:
15 фев 2012, 16:44
Возраст: 28
Спасибо: 7290 / 2147
Сообщения: 70475
Год выхода: 2002
Жанр: триллер, научная фантастика
Режиссер: Анджей Секула

В ролях: Кэри Мэтчетт, Жерен Вин Дэйвис, Грэйс Линн Кунг, Мэттью Фергюсон, Нил Кроун, Барбара Гордон

О фильме:
Таинственный гиперкуб, загадочное творение безумного гения, вновь наполняется невинными жертвами. Восемь незнакомцев очутились в странных комнатах, где действуют лишь законы четвертого измерения, играющие злые шутки с пространством и временем. В отчаянии, пытаясь найти выход из запятнанного кровью лабиринта, где любой неосторожный шаг равносилен самоубийству, они вскоре понимают, что сумеют выжить, только если разгадают все тайны гигантской мозаики смертоносных ловушек, прежде чем она распадется на части вместе со своими пленниками.



Страна: Канада
Продолжительность: 01:34:13
Перевод: профессиональный (двухголосый, закадровый)

Файл
Контейнер: MKV
Качество: BDRip 720p
Видео: AVC, 1280x720 (16:9), 23.976 fps, 4 435 Kbps (0.201 bit/pixel)
Аудио #1: AC-3, 48.0 KHz, 6 ch, 448 Kbps, CBR (Russian)
Аудио #2: AC-3, 48.0 KHz, 6 ch, 384 Kbps, CBR (English)
Субтитры: Русские, английские

Релиз: &

x264 [info]: profile Main, level 4.1
x264 [info]: frame I:848 Avg QP:16.72 size: 75086 PSNR Mean Y:45.78 U:50.60 V:50.98 Avg:46.83 Global:46.10
x264 [info]: frame P:30422 Avg QP:19.19 size: 42001 PSNR Mean Y:43.68 U:49.95 V:50.22 Avg:44.88 Global:43.97
x264 [info]: frame B:104260 Avg QP:21.63 size: 16858 PSNR Mean Y:42.87 U:49.68 V:49.98 Avg:44.13 Global:43.16
Формат : Matroska
Версия формата : Version 2
Размер файла : 3,47 Гбайт
Продолжительность : 1 ч. 34 м.
Общий поток : 5268 Кбит/сек
Дата кодирования : UTC 2017-06-12 22:31:21
Программа кодирования : mkvmerge v5.3.0 ('I could have danced') built on Feb 9 2012 10:38:07
Библиотека кодирования : libebml v1.2.3 + libmatroska v1.3.0
Attachments : poster (18).jpg
Видео
Идентификатор : 1
Формат : AVC
Формат/Информация : Advanced Video Codec
Профиль формата : High@L4.1
Параметр CABAC формата : Да
Параметр ReFrames формата : 9 кадров
Идентификатор кодека : V_MPEG4/ISO/AVC
Продолжительность : 1 ч. 34 м.
Битрейт : 4435 Кбит/сек
Ширина : 1280 пикселей
Высота : 720 пикселей
Соотношение сторон : 16:9
Режим частоты кадров : Постоянный
Частота кадров : 23,976 (24000/1001) кадра/сек
Цветовое пространство : YUV
Субдискретизация насыщенности : 4:2:0
Битовая глубина : 8 бит
Тип развёртки : Прогрессивная
Бит/(Пиксели*Кадры) : 0.201
Размер потока : 2,85 Гбайт (82%)
Библиотека кодирования : x264 core 146 r2538 121396c
Настройки программы : cabac=1 / ref=9 / deblock=1:-3:-3 / analyse=0x3:0x133 / me=umh / subme=11 / psy=1 / psy_rd=1.00:0.00 / mixed_ref=1 / me_range=32 / chroma_me=1 / trellis=2 / 8x8dct=1 / cqm=0 / deadzone=21,11 / fast_pskip=0 / chroma_qp_offset=-2 / threads=12 / lookahead_threads=3 / sliced_threads=0 / nr=0 / decimate=1 / interlaced=0 / bluray_compat=0 / constrained_intra=0 / bframes=9 / b_pyramid=2 / b_adapt=2 / b_bias=0 / direct=3 / weightb=1 / open_gop=0 / weightp=2 / keyint=240 / keyint_min=23 / scenecut=40 / intra_refresh=0 / rc=2pass / mbtree=0 / bitrate=4435 / ratetol=1.0 / qcomp=0.60 / qpmin=0 / qpmax=69 / qpstep=4 / cplxblur=20.0 / qblur=0.5 / ip_ratio=1.40 / pb_ratio=1.30 / aq=1:0.80
Язык : English
Default : Да
Forced : Нет
Аудио #1
Идентификатор : 2
Формат : AC-3
Формат/Информация : Audio Coding 3
Расширение режима : CM (complete main)
Параметр Endianness формата : Big
Идентификатор кодека : A_AC3
Продолжительность : 1 ч. 34 м.
Вид битрейта : Постоянный
Битрейт : 448 Кбит/сек
Каналы : 6 каналов
Расположение каналов : Front: L C R, Side: L R, LFE
Частота : 48,0 КГц
Частота кадров : 31,250 кадров/сек (1536 spf)
Битовая глубина : 16 бит
Метод сжатия : С потерями
Размер потока : 302 Мбайт (9%)
Заголовок : Профессиональный (двухголосый, закадровый)
Язык : Russian
Default : Да
Forced : Да
Аудио #2
Идентификатор : 3
Формат : AC-3
Формат/Информация : Audio Coding 3
Расширение режима : CM (complete main)
Параметр Endianness формата : Big
Идентификатор кодека : A_AC3
Продолжительность : 1 ч. 34 м.
Вид битрейта : Постоянный
Битрейт : 384 Кбит/сек
Каналы : 6 каналов
Расположение каналов : Front: L C R, Side: L R, LFE
Частота : 48,0 КГц
Частота кадров : 31,250 кадров/сек (1536 spf)
Битовая глубина : 16 бит
Метод сжатия : С потерями
Задержка видео : 1 с. 100 мс.
Размер потока : 259 Мбайт (7%)
Заголовок : оригинальная звуковая дорожка
Язык : English
Default : Нет
Forced : Нет
Текст #1
Идентификатор : 4
Формат : UTF-8
Идентификатор кодека : S_TEXT/UTF8
Идентификатор кодека/Информация : UTF-8 Plain Text
Язык : Russian
Default : Нет
Forced : Нет
Текст #2
Идентификатор : 5
Формат : UTF-8
Идентификатор кодека : S_TEXT/UTF8
Идентификатор кодека/Информация : UTF-8 Plain Text
Язык : English
Default : Нет
Forced : Нет


_________________
Проголосуй за трекер Открытый торрент трекер - RUS-MEDIA.ORG

Проголосуй Открытый торрент трекер - RUS-MEDIA.ORG


Вернуться к началу
 Профиль Отправить личное сообщение  
 
   Похожие торренты   Автор   Торрент   Размер 
В этой теме нет новых непрочитанных сообщений. Куб 2: Гиперкуб / Cube 2: Hypercube [триллер, научная фантастика, 2002] BDRip 720p, Dvo

salma3

84 | 77

4.7 ГБ

В этой теме нет новых непрочитанных сообщений. Куб 2: Гиперкуб / Cube 2: Hypercube [триллер, научная фантастика, 2002] BDRemux 1080p, Dvo

salma3

93 | 52

18.38 ГБ

В этой теме нет новых непрочитанных сообщений. Куб 2: Гиперкуб / Cube 2: Hypercube [фантастика, триллер, 2002] BDRip-AVC, Dvo

salma3

78 | 21

745.36 МБ

В этой теме нет новых непрочитанных сообщений. Куб 2: Гиперкуб / Cube 2: Hypercube [триллер, ужасы, фантастика, детектив, 2002] BDRip, Dvo

salma3

106 | 38

1.46 ГБ

В этой теме нет новых непрочитанных сообщений. Куб 2: Гиперкуб / Cube 2: Hypercube [ужасы, фантастика, триллер, драма, 2002] BDRip 1080p, Mvo+Sub

salma3

78 | 30

8.57 ГБ

В этой теме нет новых непрочитанных сообщений. Куб Ноль / Cube Zero [ужасы, фантастика, триллер, драма, 2004] BDRip 1080p, Mvo+Sub

salma3

110 | 23

7.27 ГБ

В этой теме нет новых непрочитанных сообщений. Роллербол / Rollerball [Боевик, Фантастика, Триллер, 2002] BDRip 720p, Dub

salma3

10 | 66

4.37 ГБ


Начать новую тему Ответить на тему  [ 1 сообщение ] 




Для Мосгорсуда, Роскомнадзора и рекламодателей:: mosgorsud-torrent[собачка]yandex.ru
cron