Торрент файл
скачать торрент магнет ссылка Добавлен: 10 июн 2017, 20:46
Размер: 2.73 ГБ
Сидеров: 1587
Личеров: 977
Статус: (salma3)
Автор

СообщениеДобавлено: 10 июн 2017, 20:46 

Не в сети
Супермодератор
Аватара пользователя
Дата регистрации:
15 фев 2012, 16:44
Возраст: 28
Спасибо: 6569 / 2137
Сообщения: 43777
Год выпуска: 2017
Жанр: драма, мелодрама, комедия
Режиссер: Элинор Коппола

В ролях: Дайан Лэйн (Anne), Алек Болдуин (Michael), Арно Виард (Jacques), Линда Гегуш (Anne Marie, озвучка), Элоди Наварр (Carol), Элиз Тиельрууа (Martine), Седрик Монне (Gardien de musée)

Описание:
Главная героиня фильма, уже не молодая женщина Анна, замужем за успешным кинопродюсером. Муж постоянно работает и почти не бывает дома, героиня чувствует себя одинокой и от того несчастной. Когда супруг уезжает в очередную командировку, героиня отправляется на автомобиле из Канн в Париж. Сопровождает ее деловой партнер мужа, который окажется искусным обольстителем. Два коротких дня вместят увлекательное путешествие, которое напомнит Анне о том, что жизнь прекрасна.



Страна: США
Продолжительность: 01:28:25
Перевод: Дубляж - [iTunes]


Качество: WEB-DL 720p
Формат: MKV
Видео: AVC, 960x690@1280x690, 4031 kbps, 25 fps, 0,243 bpp
Аудио: русский / AC3 / 5.1 / 48 kHz / 384 kbps / |Дубляж|
Навигация по главам: есть

General
Unique ID : 231290382794583701904527268384791925827 (0xAE00E84BD80FFFDB897A5767D5111443)
Complete name : E:Parij.podojdet.2017.D.WEB-DL.720p.mkv
Format : Matroska
Format version : Version 4 / Version 2
File size : 2.73 GiB
Duration : 1 h 28 min
Overall bit rate : 4 417 kb/s
Encoded date : UTC 2017-06-10 13:11:11
Writing application : mkvmerge v12.0.0 ('Trust / Lust') 64bit
Writing library : libebml v1.3.4 + libmatroska v1.4.5

Video
ID : 1
Format : AVC
Format/Info : Advanced Video Codec
Format profile : Main@L3.1
Format settings, CABAC : No
Format settings, ReFrames : 2 frames
Codec ID : V_MPEG4/ISO/AVC
Duration : 1 h 28 min
Bit rate : 4 031 kb/s
Width : 960 pixels
Height : 690 pixels
Display aspect ratio : 1.85:1
Frame rate mode : Constant
Frame rate : 25.000 FPS
Color space : YUV
Chroma subsampling : 4:2:0
Bit depth : 8 bits
Scan type : Progressive
Bits/(Pixel*Frame) : 0.243
Stream size : 2.49 GiB (91%)
Language : English
Default : Yes
Forced : No
Color range : Limited
Color primaries : BT.709
Transfer characteristics : BT.709
Matrix coefficients : BT.709

Audio
ID : 2
Format : AC-3
Format/Info : Audio Coding 3
Mode extension : CM (complete main)
Format settings, Endianness : Big
Codec ID : A_AC3
Duration : 1 h 28 min
Bit rate mode : Constant
Bit rate : 384 kb/s
Channel(s) : 6 channels
Channel positions : Front: L C R, Side: L R, LFE
Sampling rate : 48.0 kHz
Frame rate : 31.250 FPS (1536 spf)
Compression mode : Lossy
Stream size : 243 MiB (9%)
Title : Дубляж | iTunes
Language : Russian
Default : Yes
Forced : No

Menu
00:00:00.000 : en:Глава 1
00:05:06.200 : en:Глава 2
00:09:27.559 : en:Глава 3
00:15:01.439 : en:Глава 4
00:22:24.878 : en:Глава 5
00:33:59.998 : en:Глава 6
00:39:00.758 : en:Глава 7
00:49:51.957 : en:Глава 8
00:58:56.636 : en:Глава 9
01:06:08.275 : en:Глава 10
01:14:16.354 : en:Глава 11
01:20:16.954 : en:Глава 12



_________________
Проголосуй за трекер Открытый торрент трекер - RUS-MEDIA.ORG

Проголосуй Открытый торрент трекер - RUS-MEDIA.ORG



реклама партнёра


Вернуться к началу
 Профиль Отправить личное сообщение  
 
   Похожие торренты   Автор   Торрент   Размер 
В этой теме нет новых непрочитанных сообщений. Париж подождет / Paris Can Wait [драма, мелодрама, комедия, 2017] WEB-DLRip, Dub [iTunes]

salma3

2319 | 257

1.37 ГБ

В этой теме нет новых непрочитанных сообщений. Париж подождет / Paris Can Wait [драма, мелодрама, комедия, 2017] WEB-DLRip-AVC, Dub [iTunes]

salma3

190 | 40

741.3 МБ

В этой теме нет новых непрочитанных сообщений. Кевин подождет / Kevin Can Wait [02x01-07 из 24] [Комедия, 2017] HDTV 720p, Mvo [IdeaFilm]

salma3

0 | 0

6.28 ГБ

В этой теме нет новых непрочитанных сообщений. Кевин подождет / Kevin Can Wait [02х03 из 24] [Комедия, 2017] HDTVRip 720p, Dvo [SunshineStudio]

salma3

0 | 1

1.29 ГБ

В этой теме нет новых непрочитанных сообщений. Кевин подождет / Kevin Can Wait [S01] [Комедия, 2016] WEB-DLRip 720p, Mvo [IdeaFilm]

salma3

0 | 5

16.51 ГБ

В этой теме нет новых непрочитанных сообщений. Кевин подождет / Kevin Can Wait [01x01-09 из 13] ( Комедия, 2016) WEB-DL 720p | IdeaFilm

marya111

31 | 24

6.1 ГБ

В этой теме нет новых непрочитанных сообщений. Кевин подождет / Kevin Can Wait [01x01-07 из 13] (Комедия, 2016) WEB-DL 720p | IdeaFilm

marya111

10 | 9

4.69 ГБ


Начать новую тему Ответить на тему  [ 1 сообщение ] 




Для Мосгорсуда, Роскомнадзора и рекламодателей:: mosgorsud-torrent[собачка]yandex.ru