Торрент файл
скачать торрент магнет ссылка Добавлен: 09 июн 2017, 10:49
Размер: 7.1 ГБ
Сидеров: 84
Личеров: 32
Статус: (salma3)
Автор

СообщениеДобавлено: 09 июн 2017, 10:49 

Не в сети
Супермодератор
Аватара пользователя
Дата регистрации:
15 фев 2012, 16:44
Возраст: 28
Спасибо: 7205 / 2147
Сообщения: 65334
Год выхода: 2007
Жанр: Ужасы
Режиссер: Дарио Ардженто

В ролях: Азия Ардженто, Кристиан Солимено, Адам Джеймс, Моран Атиас, Валерия Кавалли, Филипп Леруа,

О фильме:
К студенткам по реставрации произведений искусств Саре Мэнди и ее коллеге попадает в руки античная урна. Открыв урну и обнаружив там древние предметы, они невольно возвращают к жизни самую могущественную из ведьм — Мать Слез. Подруга Сары оказывается жертвой жестокого убийства демонами, слугами ведьмы, а самой Саре удается убежать. Рим оказывается охвачен паникой и наводнен насилием, повсюду совершаются преступления и загадочные самоубийства. Сара обязательно должна узнать всю правду о своем духовном происхождении и найти способ усмирить самую жестокую и могущественную из ведьм…



Страна: Италия, США
Продолжительность: 01:41:38
Перевод: Профессиональный (многоголосый, закадровый) R5*
*текст читали Алексей Борзунов, Елена Борзунова и другие.

Файл
Кодек: x264
Качество: BDRip 1080p
Видео: MPEG-4 AVC, 7841 Кбит/с, 1920x816, 23.976 кадр/с
Аудио#1: AC3, 48.0 khz, 6 ch, 448 kbps - MVO, [R5]
Аудио#2: DTS, 48.0 khz, 6 ch, 1509 kbps - Оригинал (английский)
Субтитры: Русские, английские, китайские (упрощенные), китайские (традиционные)

General
Unique ID : 213927852993301818737390637290854785894 (0xA0F1017C3A817415A0EB40CB548FA366)
Complete name : I:Mother.of.Tears.2007.P.BDRip.1080p.x264.Rus.Eng.mkv
Format : Matroska
Format version : Version 4 / Version 2
File size : 7.10 GiB
Duration : 1h 41mn
Overall bit rate : 9 997 Kbps
Encoded date : UTC 2017-06-08 08:09:53
Writing application : mkvmerge v8.3.0 ('Over the Horizon') 32bit
Writing library : libebml v1.3.1 + libmatroska v1.4.2
DURATION : 01:35:25.018000000
NUMBER_OF_FRAMES : 531
NUMBER_OF_BYTES : 33590
_STATISTICS_WRITING_APP : mkvmerge v8.3.0 ('Over the Horizon') 32bit
_STATISTICS_WRITING_DATE_UTC : 2017-06-08 08:09:53
_STATISTICS_TAGS : BPS DURATION NUMBER_OF_FRAMES NUMBER_OF_BYTES
Attachment : Yes / Yes
Video
ID : 1
Format : AVC
Format/Info : Advanced Video Codec
Format profile : High@L4.1
Format settings, CABAC : Yes
Format settings, ReFrames : 5 frames
Codec ID : V_MPEG4/ISO/AVC
Duration : 1h 41mn
Bit rate : 7 841 Kbps
Width : 1 920 pixels
Height : 816 pixels
Display aspect ratio : 2.35:1
Frame rate mode : Constant
Frame rate : 23.976 fps
Color space : YUV
Chroma subsampling : 4:2:0
Bit depth : 8 bits
Scan type : Progressive
Bits/(Pixel*Frame) : 0.209
Stream size : 5.57 GiB (78%)
Writing library : x264 core 148 r2705+45 bdacf7a 7mod [8-bit@all X86_64]
Encoding settings : cabac=1 / ref=5 / deblock=1:-3:-3 / analyse=0x3:0x113 / me=umh / subme=11 / psy=1 / fade_compensate=0.00 / psy_rd=1.00:0.05 / mixed_ref=1 / me_range=32 / chroma_me=1 / trellis=2 / 8x8dct=1 / cqm=0 / deadzone=21,11 / fast_pskip=0 / chroma_qp_offset=-2 / threads=24 / lookahead_threads=4 / sliced_threads=0 / nr=0 / decimate=1 / interlaced=0 / bluray_compat=0 / constrained_intra=0 / fgo=0 / bframes=8 / b_pyramid=2 / b_adapt=2 / b_bias=0 / direct=3 / weightb=1 / open_gop=0 / weightp=2 / keyint=250 / keyint_min=23 / scenecut=40 / intra_refresh=0 / rc_lookahead=40 / rc=crf / mbtree=0 / crf=17.5000 / qcomp=0.60 / qpmin=0:0:0 / qpmax=69:69:69 / qpstep=4 / vbv_maxrate=50000 / vbv_bufsize=40000 / crf_max=0.0 / nal_hrd=none / filler=0 / ip_ratio=1.40 / pb_ratio=1.30 / aq=4:0.90 / aq-sensitivity=10.00 / aq-factor=1.00:1.00:1.00 / aq2=0 / aq3=0
Language : English
Default : Yes
Forced : No
DURATION : 01:41:38.092000000
NUMBER_OF_FRAMES : 146208
NUMBER_OF_BYTES : 6105499476
_STATISTICS_WRITING_APP : mkvmerge v8.3.0 ('Over the Horizon') 32bit
_STATISTICS_WRITING_DATE_UTC : 2017-06-08 08:09:53
_STATISTICS_TAGS : BPS DURATION NUMBER_OF_FRAMES NUMBER_OF_BYTES
Audio #1
ID : 2
Format : AC-3
Format/Info : Audio Coding 3
Mode extension : CM (complete main)
Format settings, Endianness : Big
Codec ID : A_AC3
Duration : 1h 41mn
Bit rate mode : Constant
Bit rate : 448 Kbps
Channel(s) : 6 channels
Channel positions : Front: L C R, Side: L R, LFE
Sampling rate : 48.0 KHz
Bit depth : 16 bits
Compression mode : Lossy
Stream size : 326 MiB (4%)
Title : Профессиональный (многоголосый закадровый)
Language : Russian
Default : Yes
Forced : No
Audio #2
ID : 3
Format : DTS
Format/Info : Digital Theater Systems
Mode : 16
Format settings, Endianness : Big
Codec ID : A_DTS
Duration : 1h 41mn
Bit rate mode : Constant
Bit rate : 1 509 Kbps
Channel(s) : 6 channels
Channel positions : Front: L C R, Side: L R, LFE
Sampling rate : 48.0 KHz
Bit depth : 16 bits
Compression mode : Lossy
Stream size : 1.07 GiB (15%)
Title : Original
Language : English
Default : No
Forced : No
Text #1
ID : 4
Format : UTF-8
Codec ID : S_TEXT/UTF8
Codec ID/Info : UTF-8 Plain Text
Language : Russian
Default : No
Forced : No
Text #2
ID : 5
Format : PGS
Muxing mode : zlib
Codec ID : S_HDMV/PGS
Codec ID/Info : The same subtitle format used on BDs/HD-DVDs
Title : ENG
Language : English
Default : No
Forced : No
Text #3
ID : 6
Format : PGS
Muxing mode : zlib
Codec ID : S_HDMV/PGS
Codec ID/Info : The same subtitle format used on BDs/HD-DVDs
Title : CHS
Language : Chinese
Default : No
Forced : No
Text #4
ID : 7
Format : PGS
Muxing mode : zlib
Codec ID : S_HDMV/PGS
Codec ID/Info : The same subtitle format used on BDs/HD-DVDs
Title : CHT
Language : Chinese
Default : No
Forced : No


_________________
Проголосуй за трекер Открытый торрент трекер - RUS-MEDIA.ORG

Проголосуй Открытый торрент трекер - RUS-MEDIA.ORG


Вернуться к началу
 Профиль Отправить личное сообщение  
 
   Похожие торренты   Автор   Торрент   Размер 
В этой теме нет новых непрочитанных сообщений. Жена, Мать, Шлюха / Wife, Mother, Whore (2007) DVDRip

salma3

21 | 3

2.05 ГБ

В этой теме нет новых непрочитанных сообщений. Мать / Madre (Аарон Барнс / Aaron Burns) [2016г., Чили, триллер, WEB-DLRip] dvo

Alfredovich

0 | 0

1.46 ГБ

В этой теме нет новых непрочитанных сообщений. Мать-Волчица / Wolf Mother [Триллер, криминал, 2016] WEBRip 720p, Mvo

salma3

157 | 34

1.97 ГБ

В этой теме нет новых непрочитанных сообщений. Ночь, когда моя мать убила моего отца / La noche que mi madre mato a mi padre [комедия, 2016] HDRip, Mvo

salma3

82 | 8

699.92 МБ

В этой теме нет новых непрочитанных сообщений. Ночь, когда моя мать убила моего отца / La noche que mi madre mato a mi padre [комедия, 2016] HDRip, Mvo

salma3

257 | 31

1.37 ГБ

В этой теме нет новых непрочитанных сообщений. Marc Dorcel - Мать и дочь / Une Mère et sa Fille / Mother & Daughter (2010) DVDRip | Rus

salma3

177 | 18

2.05 ГБ

В этой теме нет новых непрочитанных сообщений. My Girlfriends Mother 12 / Мать моей девушки 12 (Jacky St. James, Sweet Sinner) [2017 г., MILF, Feature, International, WEB-DL] (Split Scenes)

salma3

0 | 0

1.21 ГБ


Начать новую тему Ответить на тему  [ 1 сообщение ] 




Для Мосгорсуда, Роскомнадзора и рекламодателей:: mosgorsud-torrent[собачка]yandex.ru
cron