Торрент файл
скачать торрент магнет ссылка Добавлен: 08 июн 2017, 11:26
Размер: 4.7 ГБ
Сидеров: 84
Личеров: 77
Статус: (salma3)
Автор

СообщениеДобавлено: 08 июн 2017, 11:26 

Не в сети
Супермодератор
Аватара пользователя
Дата регистрации:
15 фев 2012, 16:44
Возраст: 29
Спасибо: 7339 / 2147
Сообщения: 75613
Год выхода: 2002
Жанр: триллер, научная фантастика
Режиссер: Анджей Секула

В ролях: Кэри Мэтчетт, Жерен Вин Дэйвис, Грэйс Линн Кунг, Мэттью Фергюсон, Нил Кроун, Барбара Гордон

О фильме:
Таинственный гиперкуб, загадочное творение безумного гения, вновь наполняется невинными жертвами. Восемь незнакомцев очутились в странных комнатах, где действуют лишь законы четвертого измерения, играющие злые шутки с пространством и временем. В отчаянии, пытаясь найти выход из запятнанного кровью лабиринта, где любой неосторожный шаг равносилен самоубийству, они вскоре понимают, что сумеют выжить, только если разгадают все тайны гигантской мозаики смертоносных ловушек, прежде чем она распадется на части вместе со своими пленниками.



Страна: Канада
Продолжительность: 01:34:13
Перевод: профессиональный [двухголосый, закадровый]

Файл
Кодек: x264
Качество: BDRip 720p (рип от sv503)
Видео: 1280x720, 6500 Кбит/сек, 23.976 кадров/сек
Звук:
Русский; AC3; 6 каналов; 48 кГц; 448 Кбит/сек; профессиональный двухголосый закадровый
Английский; AC3; 2 канала; 48 кГц; 192 Кбит/сек; оригинальная дорожка
Субтитры: русские (SRT)

Общее
Уникальный идентификатор : 179823524037359551161781085525131468074 (0x8748C03F3BFB2B76AD35AFDF4FED1D2A)
Полное имя : Cube 2.Hypercube.2002.720p.mkv
Формат : Matroska
Версия формата : Version 2
Размер файла : 4,70 Гбайт
Продолжительность : 1 ч. 34 м.
Общий поток : 7134 Кбит/сек
Дата кодирования : UTC 2017-06-07 16:50:20
Программа кодирования : mkvmerge v5.8.0 ('No Sleep / Pillow') built on Sep 2 2012 15:37:04
Библиотека кодирования : libebml v1.2.3 + libmatroska v1.3.0
Видео
Идентификатор : 1
Формат : AVC
Формат/Информация : Advanced Video Codec
Профиль формата : High@L4.1
Параметр CABAC формата : Да
Параметр ReFrames формата : 9 кадров
Режим смешивания : Header stripping
Идентификатор кодека : V_MPEG4/ISO/AVC
Продолжительность : 1 ч. 34 м.
Битрейт : 6500 Кбит/сек
Ширина : 1280 пикселей
Высота : 720 пикселей
Соотношение сторон : 16:9
Режим частоты кадров : Постоянный
Частота кадров : 23,976 (24000/1001) кадра/сек
Цветовое пространство : YUV
Субдискретизация насыщенности : 4:2:0
Битовая глубина : 8 бит
Тип развёртки : Прогрессивная
Бит/(Пиксели*Кадры) : 0.294
Размер потока : 4,18 Гбайт (89%)
Библиотека кодирования : x264 core 146 r2538 121396c
Настройки программы : cabac=1 / ref=9 / deblock=1:-3:-3 / analyse=0x3:0x113 / me=tesa / subme=11 / psy=1 / psy_rd=1.00:0.00 / mixed_ref=1 / me_range=32 / chroma_me=1 / trellis=2 / 8x8dct=1 / cqm=0 / deadzone=6,6 / fast_pskip=0 / chroma_qp_offset=-2 / threads=3 / lookahead_threads=1 / sliced_threads=0 / nr=0 / decimate=0 / interlaced=0 / bluray_compat=0 / constrained_intra=0 / bframes=7 / b_pyramid=2 / b_adapt=2 / b_bias=0 / direct=3 / weightb=1 / open_gop=0 / weightp=2 / keyint=240 / keyint_min=23 / scenecut=40 / intra_refresh=0 / rc_lookahead=60 / rc=2pass / mbtree=1 / bitrate=6500 / ratetol=1.0 / qcomp=0.70 / qpmin=0 / qpmax=69 / qpstep=4 / cplxblur=20.0 / qblur=0.5 / vbv_maxrate=62500 / vbv_bufsize=78125 / nal_hrd=none / filler=0 / ip_ratio=1.10 / aq=1:0.90 / zones=129669,135527,b=0.4
Язык : English
Default : Да
Forced : Нет
Аудио #1
Идентификатор : 2
Формат : AC-3
Формат/Информация : Audio Coding 3
Расширение режима : CM (complete main)
Параметр Endianness формата : Big
Режим смешивания : Header stripping
Идентификатор кодека : A_AC3
Продолжительность : 1 ч. 34 м.
Вид битрейта : Постоянный
Битрейт : 448 Кбит/сек
Каналы : 6 каналов
Расположение каналов : Front: L C R, Side: L R, LFE
Частота : 48,0 КГц
Частота кадров : 31,250 кадров/сек (1536 spf)
Метод сжатия : С потерями
Размер потока : 302 Мбайт (6%)
Заголовок : Профессиональный (двухголосый, закадровый)
Язык : Russian
Default : Да
Forced : Да
Аудио #2
Идентификатор : 3
Формат : AC-3
Формат/Информация : Audio Coding 3
Расширение режима : CM (complete main)
Параметр Endianness формата : Big
Режим смешивания : Header stripping
Идентификатор кодека : A_AC3
Продолжительность : 1 ч. 34 м.
Вид битрейта : Постоянный
Битрейт : 192 Кбит/сек
Каналы : 2 канала
Расположение каналов : Front: L R
Частота : 48,0 КГц
Частота кадров : 31,250 кадров/сек (1536 spf)
Метод сжатия : С потерями
Размер потока : 129 Мбайт (3%)
Заголовок : English
Язык : English
Default : Нет
Forced : Нет
Текст
Идентификатор : 4
Формат : UTF-8
Идентификатор кодека : S_TEXT/UTF8
Идентификатор кодека/Информация : UTF-8 Plain Text
Язык : Russian
Default : Нет
Forced : Нет


_________________
Проголосуй за трекер Открытый торрент трекер - RUS-MEDIA.ORG

Проголосуй Открытый торрент трекер - RUS-MEDIA.ORG


Вернуться к началу
 Профиль Отправить личное сообщение  
 
   Похожие торренты   Автор   Торрент   Размер 
В этой теме нет новых непрочитанных сообщений. Куб 2: Гиперкуб / Cube 2: Hypercube [триллер, научная фантастика, 2002] BDRip 720p, Dvo

salma3

41 | 30

3.47 ГБ

В этой теме нет новых непрочитанных сообщений. Куб 2: Гиперкуб / Cube 2: Hypercube [триллер, научная фантастика, 2002] BDRemux 1080p, Dvo

salma3

93 | 52

18.38 ГБ

В этой теме нет новых непрочитанных сообщений. Куб 2: Гиперкуб / Cube 2: Hypercube [фантастика, триллер, 2002] BDRip-AVC, Dvo

salma3

78 | 21

745.36 МБ

В этой теме нет новых непрочитанных сообщений. Куб 2: Гиперкуб / Cube 2: Hypercube [триллер, ужасы, фантастика, детектив, 2002] BDRip, Dvo

salma3

106 | 38

1.46 ГБ

В этой теме нет новых непрочитанных сообщений. Куб 2: Гиперкуб / Cube 2: Hypercube [ужасы, фантастика, триллер, драма, 2002] BDRip 1080p, Mvo+Sub

salma3

78 | 30

8.57 ГБ

В этой теме нет новых непрочитанных сообщений. Куб Ноль / Cube Zero [ужасы, фантастика, триллер, драма, 2004] BDRip 1080p, Mvo+Sub

salma3

110 | 23

7.27 ГБ

В этой теме нет новых непрочитанных сообщений. Роллербол / Rollerball [Боевик, Фантастика, Триллер, 2002] BDRip 720p, Dub

salma3

10 | 66

4.37 ГБ


Начать новую тему Ответить на тему  [ 1 сообщение ] 




Для Мосгорсуда, Роскомнадзора и рекламодателей:: mosgorsud-torrent[собачка]yandex.ru
cron