Торрент файл
скачать торрент магнет ссылка Добавлен: 31 май 2017, 12:06
Размер: 5.19 ГБ
Сидеров: 45
Личеров: 13
Статус: (salma3)
Автор

СообщениеДобавлено: 31 май 2017, 12:06 

В сети
Супермодератор
Аватара пользователя
Дата регистрации:
15 фев 2012, 16:44
Возраст: 28
Спасибо: 6642 / 2146
Сообщения: 45748
Год выпуска: 2007
Жанр: драма, мелодрама
Режиссер: Беф Шактер

В ролях: Эмбер Тэмблин, Эштон Холмс, Келли Гарнер, Дэрил Сабара, Джулия Гарро, Келли Линч, Эдвард Турнье, Стивен Коллетти

Описание: Эти друзья клянутся быть друг с другом и ни с кем другим — без извинений и сожалений. Но когда один член группы влюбляется в человека извне, это приносит целую череду проблем. Лидер группы встречает новость холодом и даёт понять, что если кто-нибудь решится покинуть группу, то станет врагом и поплатится за это...



Страна:[/color] США
Продолжительность: 01:27:39
Перевод: Профессиональный (многоголосый, закадровый)

Качество: HDTV 1080i
Видео: 1920x1080 (16:9), 25.000 fps, MPEG-4 AVC ~8 272 kbps avg
Аудио: 48.0 kHz, МР2, 2/0 (L,R) ch, ~192 kbps | RUS / MVO
Дата премьеры (мир): 27 апреля 2007

Релиз от: flaSI-I
Уникальный идентификатор : 209094898882896238063070719989171389069 (0x9D4E36735B937E06BAD5AE9B1370828D)
Полное имя : Normal Adolescent Behavior 2007 1080i HDTV MPEG4 MP2 2.0.mkv
Формат : Matroska
Версия формата : Version 4 / Version 2
Размер файла : 5,19 Гбайт
Продолжительность : 1 ч. 27 м.
Общий поток : 8471 Кбит/сек
Дата кодирования : UTC 2017-05-26 03:38:56
Программа кодирования : mkvmerge v12.0.0 ('Trust / Lust') 64bit
Библиотека кодирования : libebml v1.3.4 + libmatroska v1.4.5
Видео
Идентификатор : 1
Формат : AVC
Формат/Информация : Advanced Video Codec
Профиль формата : High@L4
Параметр CABAC формата : Да
Параметр ReFrames формата : 4 кадра
Идентификатор кодека : V_MPEG4/ISO/AVC
Продолжительность : 1 ч. 27 м.
Битрейт : 8272 Кбит/сек
Ширина : 1920 пикселей
Высота : 1080 пикселей
Соотношение сторон : 16:9
Режим частоты кадров : Переменный
Частота кадров : 49,943 кадров/сек
Частота кадров в оригинале : 25,000 кадров/сек
Стандарт вещания : Component
Цветовое пространство : YUV
Субдискретизация насыщенности : 4:2:0
Битовая глубина : 8 бит
Тип развёртки : Чересстрочная
Метод сохранения типа развёртки : Раздельные поля
Порядок развёртки : Верхнее поле первое
Бит/(Пиксели*Кадры) : 0.080
Размер потока : 5,06 Гбайт (98%)
Язык : English
Default : Да
Forced : Нет
Цветовой диапазон : Limited
Основные цвета : BT.709
Характеристики трансфера : BT.709
Коэффициенты матрицы : BT.709
Аудио
Идентификатор : 2
Формат : MPEG Audio
Версия формата : Version 1
Профиль формата : Layer 2
Идентификатор кодека : A_MPEG/L2
Идентификатор кодека/Подсказка : MP2
Продолжительность : 1 ч. 27 м.
Вид битрейта : Постоянный
Битрейт : 192 Кбит/сек
Каналы : 2 канала
Частота : 48,0 КГц
Частота кадров : 41,667 кадра/сек (1152 spf)
Метод сжатия : С потерями
Размер потока : 120 Мбайт (2%)
Заголовок : MVO | ТНТ HD
Язык : Russian
Default : Да
Forced : Нет
Меню
00:00:00.000 : en:Chapter 01
00:05:03.136 : en:Chapter 02
00:13:04.408 : en:Chapter 03
00:21:29.121 : en:Chapter 04
00:29:15.837 : en:Chapter 05
00:34:19.098 : en:Chapter 06
00:44:11.106 : en:Chapter 07
00:49:54.616 : en:Chapter 08
00:56:02.317 : en:Chapter 09
01:03:24.967 : en:Chapter 10
01:08:33.025 : en:Chapter 11
01:16:15.654 : en:Chapter 12
01:24:45.997 : en:Chapter 13


_________________
Проголосуй за трекер Открытый торрент трекер - RUS-MEDIA.ORG

Проголосуй Открытый торрент трекер - RUS-MEDIA.ORG



реклама партнёра


Вернуться к началу
 Профиль Отправить личное сообщение  
 
   Похожие торренты   Автор   Торрент   Размер 
В этой теме нет новых непрочитанных сообщений. Teens, Teens, Teens 3 / Подростки, Подростки, Подростки 3 (Digital Sin) [2017 г., All sex, Compilation, DVDRip]

salma3

18 | 6

3.31 ГБ

В этой теме нет новых непрочитанных сообщений. Teens, Teens, Teens / Подростки, Подростки, Подростки (2016) WEB-DL

amadei

1 | 3

5.73 ГБ

В этой теме нет новых непрочитанных сообщений. Подростки На Мели 10 / Stranded Teens 10 (2016) DVDRip

salma3

12 | 2

2.03 ГБ

В этой теме нет новых непрочитанных сообщений. Аппетитные Подростки 2 / Freaky Petite 2 (2016) DVDRip

salma3

104 | 20

1.91 ГБ

В этой теме нет новых непрочитанных сообщений. Подростки для утехи / Playtime Teens (2014) DLversion

salma3

259 | 22

623.11 МБ

В этой теме нет новых непрочитанных сообщений. Подростки против мамочек 5 / Teens Vs MILFs 5 (2017) WEBRip

salma3

40 | 2

2.3 ГБ

В этой теме нет новых непрочитанных сообщений. Подростки против мамочек / Teens Vs MILFs (2014) HD 720p

salma3

19 | 13

6.66 ГБ


Начать новую тему Ответить на тему  [ 1 сообщение ] 




Для Мосгорсуда, Роскомнадзора и рекламодателей:: mosgorsud-torrent[собачка]yandex.ru