Торрент файл
скачать торрент магнет ссылка Добавлен: 28 май 2017, 11:43
Размер: 10.87 ГБ
Сидеров: 81
Личеров: 27
Статус: (salma3)
Автор

СообщениеДобавлено: 28 май 2017, 11:43 

Не в сети
Супермодератор
Аватара пользователя
Дата регистрации:
15 фев 2012, 16:44
Возраст: 29
Спасибо: 7377 / 2147
Сообщения: 75818
Год выпуска: 1988
Жанр: фантастика, комедия
Режиссер: Ричард Бенджамин

В ролях: Дэн Эйкройд, Ким Бейсингер, Джон Ловиц, Элисон Хэннигэн, Джозеф Маэр, Сет Грин, Энн Прентисс, Уэсли Манн, Тони Джей, Питер Бромилов

О фильме:
Селеста – сексуальная инопланетянка с секретным заданием – совратить ничего не подозревающего физика Стива Миллса и добраться до его исследований, в которых содержится ключ к спасению ее планеты. Разодетая по последней моде и закусывающая на завтрак батарейками, Селеста производит неизгладимое впечатление на земных мужчин. Счастливый муж вот-вот испытает близкие контакты космически невообразимой степени!



Страна: США
Продолжительность: 01:43:33
Перевод: Профессиональный (многоголосый, закадровый) + Профессиональный (многоголосый, закадровый) СТС + Профессиональный (многоголосый, закадровый) ОРТ + Авторский (одноголосый, закадровый) В.Горчаков

Релиз:

Файл
Качество: WEBRip 1080p
Формат: Matroska
Видео: 1920x1080 at 25.000 fps, x264, ~13800 kbps avg
Aудио#1: Russian: 48 kHz, AC3, 2/0 (L,R) ch, ~192 kbps avg |Многоголосый закадровый|
Aудио#2: Russian: 48 kHz, AC3, 2/0 (L,R) ch, ~192 kbps avg |Многоголосый закадровый, СТС|
Aудио#3: Russian: 48 kHz, AC3, 2/0 (L,R) ch, ~192 kbps avg |Многоголосый закадровый, ОРТ|
Aудио#4: Russian: 48 kHz, AC3, 2/0 (L,R) ch, ~192 kbps avg |Авторский, В.Горчаков|
Aудио#5: English: 48 kHz, AC3, 2/0 (L,R) ch, ~192 kbps avg
Субтитры: Russian, English

Первоначально Шелли Лонг брали на роль Селесты.
25 января 1988 года в первоначальном сценарии в качестве сценариста был отмечен Джерико, а также то, что изменения вносили Фрэнк Галати, Ричард Беннер, Сьюзэн Райс, Хершел Уайнгрод, Тимоти Харрис, Пол Рудник, Дебра Фрэнк и Карл Соттер. Было указано и то, что сценарий был переписан Джонатаном Рейнольдсом. Но в финальных титрах фильма в итоге были указаны только четверо из десяти сценаристов.
Чтобы исполнить роль Селесты, Ким Бейсингер отказалась от возможности сыграть Сару Тобиас в фильме «Обвиняемые» (1988).
Этот фильм стал дебютом актрисы Джульетт Льюис.
В одной сцене персонаж сумки передразнивает Карла Сагана. Саган был одним из самых выдающихся астрономов и космологов Америки. Он также написал роман «Контакт», по которому был снят одноименный фильм (1997).
Один из трех членов совета пришельцев (тот, что слева от Тони Джея) никогда не говорит.
Первоначальный сценарист Джерико видел эту историю как темную аллегорию на жестокое обращение с детьми. Именно так он преподнес ее студии Paramount в 1981 году. Хотя компания так и не стала снимать фильм, она все же купила права на эту историю.
Некоторые сцены снимались в Таусанд-Оксе, Калифорния. Пляж, на который приземляется Селеста в начале фильма, тот же, что и в сериале «Беверли-Хиллз 90210» (1990-2000).
Когда Селеста находится на вечеринке Рона после ее приземления, она делает сальто назад. В то время, когда она это делает, сначала видна сумочка на ней, но в следующем кадре та исчезает. После того как она завершает трюк, сумочка снова на ее плече.
Когда Селеста находится на вечеринке в красном платье, ее волосы абсолютно прямые. Затем она переодевается в машине Стива и выходит из нее уже с вьющимися волосами.
В сцене, где Селеста заводит машину, воткнув палец в замок зажигания, когда автомобиль начинает ехать, в заднем окне со стороны пассажира видно двух членов съемочной группы.
Когда герои впервые оказываются в электрощитовой, на полу видно одного из членов съемочной группы.
[*]Во время сцены секса Селесты и Стива дважды видно подмышку Селесты. При этом оба раза заметна лента, прикрывающая ее грудь.
Общее
Уникальный идентификатор : 209884596509667356356529643315358261581 (0x9DE64D8CB687B2B9BA516CF92626E14D)
Полное имя : My Stepmother Is an Alien (1988) WEB-DL 1080p -BLUEBIRD.mkv
Формат : Matroska
Версия формата : Version 4 / Version 2
Размер файла : 10,9 Гбайт
Продолжительность : 1 ч. 43 м.
Режим общего битрейта : Переменный
Общий поток : 15,0 Мбит/сек
Дата кодирования : UTC 2016-10-21 13:19:50
Программа кодирования : mkvmerge v9.3.1 ('Mask Machine') 64bit
Библиотека кодирования : libebml v1.3.4 + libmatroska v1.4.5
Attachment : Yes

Видео
Идентификатор : 1
Формат : AVC
Формат/Информация : Advanced Video Codec
Профиль формата : High@L4.0
Параметр CABAC формата : Да
Параметр ReFrames формата : 4 кадра
Идентификатор кодека : V_MPEG4/ISO/AVC
Продолжительность : 1 ч. 43 м.
Вид битрейта : Переменный
Битрейт : 13,5 Мбит/сек
Максимальный битрейт : 15,0 Мбит/сек
Ширина : 1920 пикселей
Высота : 1080 пикселей
Соотношение сторон : 16:9
Режим частоты кадров : Постоянный
Частота кадров : 25,000 кадров/сек
Цветовое пространство : YUV
Субдискретизация насыщенности : 4:2:0
Битовая глубина : 8 бит
Тип развёртки : Прогрессивная
Бит/(Пиксели*Кадры) : 0.261
Размер потока : 9,80 Гбайт (90%)
Библиотека кодирования : x264 core 148 r2623 d5b2374
Настройки программы : cabac=1 / ref=4 / deblock=1:-1:-1 / analyse=0x3:0x133 / me=umh / subme=9 / psy=1 / psy_rd=1.00:0.15 / mixed_ref=1 / me_range=24 / chroma_me=1 / trellis=2 / 8x8dct=1 / cqm=0 / deadzone=21,11 / fast_pskip=1 / chroma_qp_offset=-3 / threads=34 / lookahead_threads=5 / sliced_threads=0 / nr=150 / decimate=1 / interlaced=0 / bluray_compat=0 / constrained_intra=0 / bframes=8 / b_pyramid=2 / b_adapt=2 / b_bias=0 / direct=3 / weightb=1 / open_gop=0 / weightp=2 / keyint=125 / keyint_min=63 / scenecut=0 / intra_refresh=0 / rc_lookahead=125 / rc=crf / mbtree=1 / crf=18.0 / qcomp=0.60 / qpmin=0 / qpmax=69 / qpstep=4 / vbv_maxrate=15000 / vbv_bufsize=31250 / crf_max=0.0 / nal_hrd=vbr / filler=0 / ip_ratio=1.40 / aq=3:1.00
Default : Да
Forced : Нет
Основные цвета : BT.709
Характеристики трансфера : BT.709
Коэффициенты матрицы : BT.709

Аудио #1
Идентификатор : 2
Формат : AC-3
Формат/Информация : Audio Coding 3
Расширение режима : CM (complete main)
Параметр Endianness формата : Big
Идентификатор кодека : A_AC3
Продолжительность : 1 ч. 43 м.
Вид битрейта : Постоянный
Битрейт : 192 Кбит/сек
Каналы : 2 канала
Расположение каналов : Front: L R
Частота : 48,0 КГц
Битовая глубина : 16 бит
Метод сжатия : С потерями
Размер потока : 142 Мбайт (1%)
Заголовок : MVO
Язык : Russian
Default : Да
Forced : Нет

Аудио #2
Идентификатор : 3
Формат : AC-3
Формат/Информация : Audio Coding 3
Расширение режима : CM (complete main)
Параметр Endianness формата : Big
Идентификатор кодека : A_AC3
Продолжительность : 1 ч. 43 м.
Вид битрейта : Постоянный
Битрейт : 192 Кбит/сек
Каналы : 2 канала
Расположение каналов : Front: L R
Частота : 48,0 КГц
Битовая глубина : 16 бит
Метод сжатия : С потерями
Размер потока : 142 Мбайт (1%)
Заголовок : CTC
Язык : Russian
Default : Нет
Forced : Нет

Аудио #3
Идентификатор : 4
Формат : AC-3
Формат/Информация : Audio Coding 3
Расширение режима : CM (complete main)
Параметр Endianness формата : Big
Идентификатор кодека : A_AC3
Продолжительность : 1 ч. 43 м.
Вид битрейта : Постоянный
Битрейт : 192 Кбит/сек
Каналы : 2 канала
Расположение каналов : Front: L R
Частота : 48,0 КГц
Битовая глубина : 16 бит
Метод сжатия : С потерями
Размер потока : 142 Мбайт (1%)
Заголовок : OPT
Язык : Russian
Default : Нет
Forced : Нет

Аудио #4
Идентификатор : 5
Формат : AC-3
Формат/Информация : Audio Coding 3
Расширение режима : CM (complete main)
Параметр Endianness формата : Big
Идентификатор кодека : A_AC3
Продолжительность : 1 ч. 43 м.
Вид битрейта : Постоянный
Битрейт : 192 Кбит/сек
Каналы : 2 канала
Расположение каналов : Front: L R
Частота : 48,0 КГц
Битовая глубина : 16 бит
Метод сжатия : С потерями
Размер потока : 142 Мбайт (1%)
Заголовок : Горчаков
Язык : Russian
Default : Нет
Forced : Нет

Аудио #5
Идентификатор : 6
Формат : AC-3
Формат/Информация : Audio Coding 3
Расширение режима : CM (complete main)
Параметр Endianness формата : Big
Идентификатор кодека : A_AC3
Продолжительность : 1 ч. 43 м.
Вид битрейта : Постоянный
Битрейт : 224 Кбит/сек
Каналы : 2 канала
Расположение каналов : Front: L R
Частота : 48,0 КГц
Битовая глубина : 16 бит
Метод сжатия : С потерями
Размер потока : 166 Мбайт (1%)
Заголовок : Володарский
Язык : Russian
Default : Нет
Forced : Нет

Аудио #6
Идентификатор : 7
Формат : AC-3
Формат/Информация : Audio Coding 3
Расширение режима : CM (complete main)
Параметр Endianness формата : Big
Идентификатор кодека : A_AC3
Продолжительность : 1 ч. 43 м.
Вид битрейта : Постоянный
Битрейт : 192 Кбит/сек
Каналы : 2 канала
Расположение каналов : Front: L R
Частота : 48,0 КГц
Битовая глубина : 16 бит
Метод сжатия : С потерями
Размер потока : 142 Мбайт (1%)
Заголовок : Englisch Stereo - DVD
Язык : English
Default : Нет
Forced : Нет

Текст #1
Идентификатор : 8
Формат : UTF-8
Идентификатор кодека : S_TEXT/UTF8
Идентификатор кодека/Информация : UTF-8 Plain Text
Язык : Russian
Default : Да
Forced : Нет

Текст #2
Идентификатор : 9
Формат : UTF-8
Идентификатор кодека : S_TEXT/UTF8
Идентификатор кодека/Информация : UTF-8 Plain Text
Заголовок : Englisch FULL
Язык : English
Default : Нет
Forced : Нет


_________________
Проголосуй за трекер Открытый торрент трекер - RUS-MEDIA.ORG

Проголосуй Открытый торрент трекер - RUS-MEDIA.ORG


Вернуться к началу
 Профиль Отправить личное сообщение  
 
   Похожие торренты   Автор   Торрент   Размер 
В этой теме нет новых непрочитанных сообщений. Моя мачеха - инопланетянка / My Stepmother Is an Alien [Комедия, фантастика, 1988] HDTVRip-AVC, Mvo

salma3

39 | 5

745.59 МБ

В этой теме нет новых непрочитанных сообщений. Моя мачеха - инопланетянка / My Stepmother Is an Alien [Комедия, фантастика, 1988] WEB-DLRip-AVC, Mvo

salma3

36 | 1

746 МБ

В этой теме нет новых непрочитанных сообщений. Моя мачеха - инопланетянка / My Stepmother Is an Alien [Комедия, фантастика, 1988] WEB-DL 720p, Mvo

salma3

0 | 0

3.36 ГБ

В этой теме нет новых непрочитанных сообщений. Инопланетянка из Лос-Анджелеса / Alien from L.A. [фантастика, комедия, приключения, 1988] DVDRip-AVC, Avo

salma3

164 | 33

2.1 ГБ

В этой теме нет новых непрочитанных сообщений. Инопланетянка из Лос-Анджелеса / Alien from L.A. [фантастика, комедия, приключения, 1988] DVDRip, Avo

salma3

175 | 30

1.45 ГБ

В этой теме нет новых непрочитанных сообщений. The Stepmother #14 / Мачеха #14 (2016) WEB-DL

amadei

2 | 4

1.77 ГБ

В этой теме нет новых непрочитанных сообщений. Чужая нация / Alien Nation [фантастика, боевик, криминал, 1988] BDRemux 1080p, Mvo

salma3

2 | 1

21.73 ГБ


Начать новую тему Ответить на тему  [ 1 сообщение ] 




Для Мосгорсуда, Роскомнадзора и рекламодателей:: mosgorsud-torrent[собачка]yandex.ru
cron