Торрент файл
скачать торрент магнет ссылка Добавлен: 27 май 2017, 19:38
Размер: 11.02 ГБ
Сидеров: 17
Личеров: 23
Автор

СообщениеДобавлено: 27 май 2017, 19:39 

Не в сети
Аватара пользователя
Дата регистрации:
09 авг 2014, 12:07
Спасибо: 63 / 1
Сообщения: 235
Откуда: КРАСНОГОРСК
Логан / Logan



Год выпуска: 2017
Выпущено: США, 20th Century Fox Film Corporation, Marvel Entertainment
Жанр: Фантастика, боевик, триллер, драма
Продолжительность: 02:17:23

Озвучка 1: Дублированный - - iTunes-Русский

Озвучка 2: Профессиональный многоголосый -Английский -Оригинал

Субтитры: Russian (Forced, iTunes), Russian (iTunes), Ukrainian (iTunes), English (iTunes)



IMDB

Режиссер:
Джеймс Мэнголд

В ролях: Хью Джекман, Патрик Стюарт, Дафни Кин, Бойд Холбрук, Стивен Мерчант, Элизабет Родригес, Ричард Э. Грант, Эрик Ла Салль, Элиз Нил, Куинси Фаус



В недалеком будущем уставший от жизни Логан заботится о больном профессоре Икс, который прячется неподалеку от мексиканской границы. Но Логан больше не сможет скрывать свое прошлое, когда встретится с юным мутантом, которого преследуют темные силы.





Качество :WEB-DLRip 1080p
Формат: MKV
Видео кодек: H264
Видео: 9972Kбит/сек,1920х1080(16.9),в 29.970кадр/сек,,AVC(Baseline@L5.1)(1Ref Frames)
Аудио Кодек:AC3

Аудио #1:AC3 , 640 Kbps, 48.0 KHz, 6 ch- -Дублированный- iTunes-Русский

Аудио #2: AC3, 640 Kbps, 48.0 KHz,6 ch - - English-Английский -Оригинал


Общее
Уникальный идентификатор : 220721412663717170902496983844794237665 (0xA60D65D654372B54BD83D7C3DDA982E1)
Полное имя : C:\ХОББИ\ПИРАТИЯ(PIRATIYA)\ЛОГАН\LOGAN_2017_Rus[DUB_iTuness]_Eng_DD5.1_N.B_WEB-DL_1800p\LOGAN_2017_Rus[DUB_iTuness]_Eng_DD5.1_N.B_WEB-DL_1800p.mkv
Формат : Matroska
Версия формата : Version 4 / Version 2
Размер файла : 10,8 Гбайт
Продолжительность : 2 ч. 17 м.
Режим общего битрейта : Переменный
Общий поток : 11,3 Мбит/сек
Название фильма : LOGAN_2017_Rus[DUB_iTuness]_Eng_DD5.1_N.B_WEB-DL_1800p
Дата кодирования : UTC 2017-05-27 11:39:38
Программа кодирования : mkvmerge v12.0.0 ('Trust / Lust') 64bit
Библиотека кодирования : libebml v1.3.4 + libmatroska v1.4.5

Видео
Идентификатор : 1
Формат : AVC
Формат/Информация : Advanced Video Codec
Профиль формата : Baseline@L5.1
Параметр CABAC формата : Нет
Параметр ReFrames формата : 1 кадр
Параметр GOP формата : M=1, N=12
Идентификатор кодека : V_MPEG4/ISO/AVC
Продолжительность : 2 ч. 17 м.
Вид битрейта : Переменный
Битрейт : 9972 Кбит/сек
Максимальный битрейт : 12,0 Мбит/сек
Ширина : 1920 пикселей
Высота : 1080 пикселей
Соотношение сторон : 16:9
Режим частоты кадров : Постоянный
Частота кадров : 29,970 (29970/1000) кадров/сек
Частота кадров в оригинале : 24,000 кадра/сек
Цветовое пространство : YUV
Субдискретизация насыщенности : 4:2:0
Битовая глубина : 8 бит
Тип развёртки : Прогрессивная
Бит/(Пиксели*Кадры) : 0.160
Размер потока : 9,59 Гбайт (89%)
Заголовок : LOGAN_2017_Rus[DUB_iTuness]_Eng_DD5.1_N.B_WEB-DL_1800p
Язык : Russian
Default : Да
Forced : Нет

Аудио #1
Идентификатор : 7
Формат : AC-3
Формат/Информация : Audio Coding 3
Параметр Endianness формата : Big
Идентификатор кодека : A_AC3
Продолжительность : 2 ч. 17 м.
Вид битрейта : Постоянный
Битрейт : 640 Кбит/сек
Каналы : 6 каналов
Расположение каналов : Front: L C R, Side: L R, LFE
Частота : 48,0 КГц
Частота кадров : 31,250 кадров/сек (1536 spf)
Битовая глубина : 16 бит
Метод сжатия : С потерями
Размер потока : 629 Мбайт (6%)
Заголовок : DUB iTuness @DD5.1 AC3 ,640 Kbps, 48.0 KHz, 6 ch
Язык : Russian
ServiceKind/String : Complete Main
Default : Да
Forced : Нет

Аудио #2
Идентификатор : 8
Формат : AC-3
Формат/Информация : Audio Coding 3
Параметр Endianness формата : Big
Идентификатор кодека : A_AC3
Продолжительность : 2 ч. 17 м.
Вид битрейта : Постоянный
Битрейт : 640 Кбит/сек
Каналы : 6 каналов
Расположение каналов : Front: L C R, Side: L R, LFE
Частота : 48,0 КГц
Частота кадров : 31,250 кадров/сек (1536 spf)
Битовая глубина : 16 бит
Метод сжатия : С потерями
Размер потока : 629 Мбайт (6%)
Заголовок : Original@DD5.1 AC3 ,640 Kbps, 48.0 KHz, 6 ch
Язык : English
ServiceKind/String : Complete Main
Default : Нет
Forced : Нет

Текст #1
Идентификатор : 2
Формат : UTF-8
Идентификатор кодека : S_TEXT/UTF8
Идентификатор кодека/Информация : UTF-8 Plain Text
Продолжительность : 2 ч. 15 м.
Битрейт : 0 бит/сек
ElementCount : 4
Размер потока : 153 байт (0%)
Заголовок : Rus Forced iTunes
Язык : Russian
Default : Да
Forced : Нет

Текст #2
Идентификатор : 3
Формат : UTF-8
Идентификатор кодека : S_TEXT/UTF8
Идентификатор кодека/Информация : UTF-8 Plain Text
Продолжительность : 2 ч. 16 м.
Битрейт : 60 бит/сек
ElementCount : 1378
Размер потока : 60,2 Кбайт (0%)
Заголовок : Rus iTunes
Язык : Russian
Default : Нет
Forced : Нет

Текст #3
Идентификатор : 4
Формат : UTF-8
Идентификатор кодека : S_TEXT/UTF8
Идентификатор кодека/Информация : UTF-8 Plain Text
Продолжительность : 2 ч. 16 м.
Битрейт : 59 бит/сек
ElementCount : 1385
Размер потока : 59,5 Кбайт (0%)
Заголовок : Ukr iTunes
Язык : Ukrainian
Default : Нет
Forced : Нет

Текст #4
Идентификатор : 5
Формат : UTF-8
Идентификатор кодека : S_TEXT/UTF8
Идентификатор кодека/Информация : UTF-8 Plain Text
Продолжительность : 2 ч. 9 м.
Битрейт : 40 бит/сек
ElementCount : 1359
Размер потока : 38,1 Кбайт (0%)
Заголовок : Original iTunes
Язык : English
Default : Нет
Forced : Нет

Текст #5
Идентификатор : 6
Формат : UTF-8
Идентификатор кодека : S_TEXT/UTF8
Идентификатор кодека/Информация : UTF-8 Plain Text
Продолжительность : 2 ч. 14 м.
Битрейт : 64 бит/сек
ElementCount : 1830
Размер потока : 63,4 Кбайт (0%)
Заголовок : Original
Язык : English
Default : Нет
Forced : Нет

Меню
00:00:00.000 : en:Глава 01 / en:Глава 01 / en:Глава 01 / en:Глава 01 / en:Глава 01 / en:Глава 01 / en:Глава 01 / en:Глава 01














Релиз от: Nikolai.Baranov & PIRATIYA







_________________

Легко быть оптимистом, когда судьба не валит с ног тяжелыми ударами, а лишь иногда легонько шлепает по заднице.


Вернуться к началу
 Профиль Отправить личное сообщение  
 
   Похожие торренты   Автор   Торрент   Размер 
В этой теме нет новых непрочитанных сообщений. Логан / Logan [Фантастика, боевик, триллер, драма, 2017] BDRip-AVC, Dub [iTunes]

salma3

1215 | 164

1.45 ГБ

В этой теме нет новых непрочитанных сообщений. Форсаж 8 / The Fate of the Furious [2017] ( Ф. Гэри Грей) [Боевик, триллер, криминал, приключения , WEB-DLRip 1080p] [DD5.1] [Dub Rus, Englis + Subs Rus , ENG] [ iTunes]

Враг Нароода

48 | 33

9.33 ГБ

В этой теме нет новых непрочитанных сообщений. Призрак в доспехах / Ghost in the Shell [2017] ( Руперт Сандерс) [Фантастика, боевик, триллер, драма, криминал, детектив] [BD-Remux] [1080p] [DD5.1] [Dub Rus,Ukr,Englis + Subs Rus ,Ukr, ENG] [ iTunes]

Враг Нароода

1 | 0

28.26 ГБ

В этой теме нет новых непрочитанных сообщений. Призрак в доспехах / Ghost in the Shell [2017] ( Руперт Сандерс) [Фантастика, боевик, триллер, драма, криминал, детектив] [BDRip ] [1080p] [DD5.1] [Dub Rus,Ukr,Englis + Subs Rus ,Ukr, ENG] [ iTunes]

Враг Нароода

0 | 2

18.49 ГБ

В этой теме нет новых непрочитанных сообщений. Логан / Logan [Фантастика, боевик, триллер, 2017] BDRip 1080p, Dub [Лицензия]

salma3

76 | 44

19.92 ГБ

В этой теме нет новых непрочитанных сообщений. Логан / Logan [Фантастика, боевик, триллер, драма, 2017] BDRip, Dub [Лицензия]

salma3

424 | 101

1.46 ГБ

В этой теме нет новых непрочитанных сообщений. Логан / Logan [Фантастика, боевик, триллер, драма, 2017] BDRip-AVC, Dub [Лицензия]

salma3

130 | 43

2.46 ГБ


Начать новую тему Ответить на тему  [ 1 сообщение ] 




Для Мосгорсуда, Роскомнадзора и рекламодателей:: mosgorsud-torrent[собачка]yandex.ru
cron