Торрент файл
скачать торрент магнет ссылка Добавлен: 16 май 2017, 20:54
Размер: 5.97 ГБ
Сидеров: 41
Личеров: 22
Статус: (salma3)
Автор

СообщениеДобавлено: 16 май 2017, 20:54 

Не в сети
Супермодератор
Аватара пользователя
Дата регистрации:
15 фев 2012, 16:44
Возраст: 28
Спасибо: 7163 / 2147
Сообщения: 61788
Год выхода: 1985
Жанр: боевик, драма
Режиссер: Стивен Джилленхол

В ролях: Татум О’Нил, Ирена Кара, Николас Кэмпбелл, Джордж Мёрдок, Моузес Ганн, Питер Фонда, Родни Гейдж, Джон Пэллоун, Дэвид Лонгуорт, Данлия Тейт

О фильме: В шайке смазливых девиц, ожидавших своей участи в здании суда, оказались взбалмошная заводила Скарлет и чернокожая скромница Трэйси. Тут-то и случилось непредвиденное: пара осужденных проституток устроила в зале суда такую пальбу, что другим ничего не оставалось как пуститься наутек. Бедняжек Скарлет и Трэйси ошибочно приняли за преступниц. С этого момента им придется спасаться от двойного преследования: их свободе угрожает полиция, за их жизнями охотится банда наркодельцов…



Страна: США
Продолжительность: 01:26:46
Перевод: Профессиональный (двухголосый закадровый) СВ-Кадр

Файл
Качество: BDRip 720p
Видео: 1280x694 at 23.976 fps, x264@L4.1, crf, ~7891 kbps avg
Аудио 1: Russian: 48 kHz/16-bit, AC3, 2/0 (L,R), ~192.00 kbps avg |Двухголосый закадровый, СВ-Кадр|
Аудио 2: English: 48 kHz/24-bit, DTS, 2/0 (L,R), ~1509.00 kbps avg
Аудио 3: English: 48 kHz/16-bit, AC3, 2/0 (L,R), ~256.00 kbps avg |Commentary|

Format : Matroska
Format version : Version 2
File size : 5.97 GiB
Duration : 1 h 26 min
Overall bit rate : 9 851 kb/s
Movie name : Certain Fury (1985) - Release for HDCLUB
Encoded date : UTC 2017-05-14 16:41:13
Writing application : mkvmerge v5.8.0 ('No Sleep / Pillow') built on Sep 2 2012 15:37:04
Writing library : libebml v1.2.3 + libmatroska v1.3.0
Cover : Yes
Attachments : cover.jpg / logfile.log

Video
ID : 1
Format : AVC
Format/Info : Advanced Video Codec
Format profile : High@L4.1
Format settings, CABAC : Yes
Format settings, ReFrames : 8 frames
Codec ID : V_MPEG4/ISO/AVC
Duration : 1 h 26 min
Bit rate : 7 698 kb/s
Width : 1 280 pixels
Height : 694 pixels
Display aspect ratio : 1.85:1
Frame rate mode : Constant
Frame rate : 23.976 (24000/1001) FPS
Color space : YUV
Chroma subsampling : 4:2:0
Bit depth : 8 bits
Scan type : Progressive
Bits/(Pixel*Frame) : 0.361
Stream size : 4.67 GiB (78%)
Title : Certain Fury (1985) - Release for HDCLUB
Writing library : x264 core 148 r2744kMod b97ae06
Encoding settings : cabac=1 / ref=8 / deblock=1:-3:-3 / analyse=0x3:0x133 / me=umh / subme=11 / psy=1 / fade_compensate=0.00 / psy_rd=1.00:0.05 / mixed_ref=1 / me_range=32 / chroma_me=1 / trellis=2 / 8x8dct=1 / cqm=0 / deadzone=21,11 / fast_pskip=0 / chroma_qp_offset=-3 / threads=12 / lookahead_threads=2 / sliced_threads=0 / nr=0 / decimate=0 / interlaced=0 / bluray_compat=0 / constrained_intra=0 / bframes=8 / b_pyramid=2 / b_adapt=2 / b_bias=0 / direct=3 / weightb=1 / open_gop=0 / weightp=2 / keyint=240 / keyint_min=23 / scenecut=40 / intra_refresh=0 / rc_lookahead=80 / rc=crf / mbtree=0 / crf=20.0000 / qcomp=0.65 / qpmin=0 / qpmax=69 / qpstep=4 / vbv_maxrate=62500 / vbv_bufsize=78125 / crf_max=0.0 / nal_hrd=none / filler=0 / ip_ratio=1.25 / pb_ratio=1.15 / aq=3:0.70
Language : English
Default : Yes
Forced : No
Color range : Limited
Color primaries : BT.709
Transfer characteristics : BT.709
Matrix coefficients : BT.709

Audio #1
ID : 2
Format : AC-3
Format/Info : Audio Coding 3
Format settings, Endianness : Big
Codec ID : A_AC3
Duration : 1 h 26 min
Bit rate mode : Constant
Bit rate : 192 kb/s
Channel(s) : 2 channels
Channel positions : Front: L R
Sampling rate : 48.0 kHz
Frame rate : 31.250 FPS (1536 spf)
Bit depth : 16 bits
Compression mode : Lossy
Stream size : 119 MiB (2%)
Title : Двухголосый закадровый, СВ-Кадр
Language : Russian
Service kind : Complete Main
Default : Yes
Forced : No

Audio #2
ID : 3
Format : DTS
Format/Info : Digital Theater Systems
Mode : 16
Format settings, Endianness : Big
Codec ID : A_DTS
Duration : 1 h 26 min
Bit rate mode : Constant
Bit rate : 1 509 kb/s
Channel(s) : 2 channels
Channel positions : Front: L R
Sampling rate : 48.0 kHz
Frame rate : 93.750 FPS (512 spf)
Bit depth : 24 bits
Compression mode : Lossy
Stream size : 937 MiB (15%)
Title : English
Language : English
Default : No
Forced : No

Audio #3
ID : 4
Format : AC-3
Format/Info : Audio Coding 3
Format settings, Endianness : Big
Codec ID : A_AC3
Duration : 1 h 26 min
Bit rate mode : Constant
Bit rate : 256 kb/s
Channel(s) : 2 channels
Channel positions : Front: L R
Sampling rate : 48.0 kHz
Frame rate : 31.250 FPS (1536 spf)
Bit depth : 16 bits
Compression mode : Lossy
Stream size : 159 MiB (3%)
Title : Commentary
Language : English
Service kind : Complete Main
Default : No
Forced : No

Menu
00:00:00.000 : :Chapter 01
00:09:45.501 : :Chapter 02
00:15:52.701 : :Chapter 03
00:26:23.206 : :Chapter 04
00:36:58.299 : :Chapter 05
00:48:07.593 : :Chapter 06
01:03:02.612 : :Chapter 07
01:13:55.931 : :Chapter 08


_________________
Проголосуй за трекер Открытый торрент трекер - RUS-MEDIA.ORG

Проголосуй Открытый торрент трекер - RUS-MEDIA.ORG


Вернуться к началу
 Профиль Отправить личное сообщение  
 
   Похожие торренты   Автор   Торрент   Размер 
В этой теме нет новых непрочитанных сообщений. Исключительная ярость / Certain Fury [боевик, драма, 1985] HDRip, Dvo

salma3

36 | 17

1.46 ГБ

В этой теме нет новых непрочитанных сообщений. Слепая ярость / Blind Fury [боевик, триллер, драма, комедия, криминал, 1989] BDRip 720p, Dub+Mvo+Avo+Dvo+Sub

salma3

81 | 7

9.81 ГБ

В этой теме нет новых непрочитанных сообщений. Ярость / Fury [боевик, драма, военный, 2014] BDRip, Avo [Гаврилов]

salma3

9 | 3

1.46 ГБ

В этой теме нет новых непрочитанных сообщений. Слепая ярость / Blind Fury [Боевик, триллер, драма, комедия, криминал, 1989] BDRip, Dub+Mvo+Avo+Dvo+Sub

salma3

89 | 20

2.16 ГБ

В этой теме нет новых непрочитанных сообщений. Слепая ярость / Blind Fury [Боевик, триллер, драма, 1989] BDRip-HEVC 1080p, Dub+Mvo+Avo

salma3

8 | 1

4.96 ГБ

В этой теме нет новых непрочитанных сообщений. Ярость в клетке / Caged Fury [Боевик, 1990] BDRip 1080p, Dvo [НТВ+]

salma3

32 | 32

8.66 ГБ

В этой теме нет новых непрочитанных сообщений. Слепая ярость / Blind Fury [боевик, триллер, драма, комедия, криминал, 1989] Blu-ray 1080p, Dub+Mvo+Avo

salma3

11 | 4

20.3 ГБ


Начать новую тему Ответить на тему  [ 1 сообщение ] 




Для Мосгорсуда, Роскомнадзора и рекламодателей:: mosgorsud-torrent[собачка]yandex.ru
cron