Торрент файл
скачать торрент магнет ссылка Добавлен: 15 май 2017, 10:43
Размер: 4.03 ГБ
Сидеров: 125
Личеров: 21
Статус: (salma3)
Автор

СообщениеДобавлено: 15 май 2017, 10:43 

В сети
Супермодератор
Аватара пользователя
Дата регистрации:
15 фев 2012, 16:44
Возраст: 28
Спасибо: 6836 / 2147
Сообщения: 49482
Год выхода: 2016
Жанр: триллер, драма, криминал
Режиссер: Бен Янг

В ролях: Эмма Бут, Эшли Каммингс, Стефен Керри, Сьюзи Портер, Дэмиан Де Монтема, Харрисон Гилбертсон, Флетчер Хамфрис, Стив Тернер, Холли Джонс

О фильме:
[i]Перт, Западная Австралия, 1987 год. Психопат Джон и эмоционально зависимая от него подруга Эвелин развлекаются похищением старшеклассниц — привозят девушек к себе домой, связывают, насилуют, убивают и тела закапывают в лесу. Родители 17-летней Вики Малоуни находятся в состоянии развода, отношения с матерью не клеятся, поэтому ночью девушка сбегает на вечеринку и по пути попадает в лапы парочке маньяков. Наблюдая за их нездоровыми отношениями, Вики понимает, что её единственный шанс на спасение — настроить Эвелин против Джона.



Страна: Австралия
Продолжительность: 01:48:10
Перевод: Любительский, одноголосый ~ BadBajo

Файл
Кодек: MPEG-4 AVC
Качество: WEB-DL 1080p
Видео: 1912x792, 4458kb/s, 24.000fps
Звук:
1] 384kb/s, 6ch, 48000kHz, AC3 [RUS]
2] 384kb/s, 6ch, 48000kHz, AC3 [ENG]
Субтитры: Английские / Реклама отсутствует
Общее
Уникальный идентификатор : 207830294559422363234093411470383288548 (0x9C5AA8A4C6A32A54AC2E1D1DF26C90E4)
Полное имя : G:MOVIESГончие любви [Hounds of Love] 2016 [WEB-DL 1080p].mkv
Формат : Matroska
Версия формата : Version 4 / Version 2
Размер файла : 4,03 Гбайт
Продолжительность : 1 ч. 48 м.
Общий поток : 5332 Кбит/сек
Название фильма : Hounds.of.Love.2016.1080p.WEB-DL.DD5.1.H264-FGT
Дата кодирования : UTC 2017-05-12 19:45:42
Программа кодирования : mkvmerge v9.5.0 ('Quiet Fire') 64bit
Библиотека кодирования : libebml v1.3.4 + libmatroska v1.4.5
DURATION : 01:48:10.048000000
NUMBER_OF_FRAMES : 202814
NUMBER_OF_BYTES : 311522304
_STATISTICS_WRITING_APP : mkvmerge v9.5.0 ('Quiet Fire') 64bit
_STATISTICS_WRITING_DATE_UTC : 2017-05-12 19:45:42
_STATISTICS_TAGS : BPS DURATION NUMBER_OF_FRAMES NUMBER_OF_BYTES
Attachment : Yes
Видео
Идентификатор : 1
Формат : AVC
Формат/Информация : Advanced Video Codec
Профиль формата : High@L4.0
Параметр CABAC формата : Да
Параметр ReFrames формата : 5 кадров
Идентификатор кодека : V_MPEG4/ISO/AVC
Продолжительность : 1 ч. 48 м.
Битрейт : 4458 Кбит/сек
Ширина : 1912 пикселей
Высота : 792 пикселя
Соотношение сторон : 2,40:1
Режим частоты кадров : Постоянный
Частота кадров : 24,000 кадра/сек
Цветовое пространство : YUV
Субдискретизация насыщенности : 4:2:0
Битовая глубина : 8 бит
Тип развёртки : Прогрессивная
Бит/(Пиксели*Кадры) : 0.123
Размер потока : 3,37 Гбайт (84%)
Заголовок : Hounds.of.Love.2016.1080p.WEB-DL.DD5.1.H264-FGT
Язык : English
Default : Да
Forced : Нет
Основные цвета : BT.709
Характеристики трансфера : BT.709
Коэффициенты матрицы : BT.709
Аудио #1
Идентификатор : 2
Формат : AC-3
Формат/Информация : Audio Coding 3
Расширение режима : CM (complete main)
Параметр Endianness формата : Big
Идентификатор кодека : A_AC3
Продолжительность : 1 ч. 48 м.
Вид битрейта : Постоянный
Битрейт : 384 Кбит/сек
Каналы : 6 каналов
Расположение каналов : Front: L C R, Side: L R, LFE
Частота : 48,0 КГц
Битовая глубина : 16 бит
Метод сжатия : С потерями
Размер потока : 297 Мбайт (7%)
Заголовок : Hounds.of.Love.2016_rus_BadBajo
Язык : Russian
Default : Да
Forced : Да
Аудио #2
Идентификатор : 3
Формат : AC-3
Формат/Информация : Audio Coding 3
Расширение режима : CM (complete main)
Параметр Endianness формата : Big
Идентификатор кодека : A_AC3
Продолжительность : 1 ч. 48 м.
Вид битрейта : Постоянный
Битрейт : 384 Кбит/сек
Каналы : 6 каналов
Расположение каналов : Front: L C R, Side: L R, LFE
Частота : 48,0 КГц
Битовая глубина : 16 бит
Метод сжатия : С потерями
Размер потока : 297 Мбайт (7%)
Заголовок : Hounds.of.Love.2016.1080p.WEB-DL.DD5.1.H264-FGT
Язык : English
Default : Нет
Forced : Нет
Текст
Идентификатор : 4
Формат : UTF-8
Идентификатор кодека : S_TEXT/UTF8
Идентификатор кодека/Информация : UTF-8 Plain Text
Язык : English
Default : Нет
Forced : Нет
Меню
00:00:00.000 : en:1
00:13:37.000 : en:2
00:27:39.000 : en:3
00:42:40.000 : en:4
00:56:43.000 : en:5
01:16:59.000 : en:6
01:30:40.000 : en:7


_________________
Проголосуй за трекер Открытый торрент трекер - RUS-MEDIA.ORG

Проголосуй Открытый торрент трекер - RUS-MEDIA.ORG



реклама партнёра


Вернуться к началу
 Профиль Отправить личное сообщение  
 
   Похожие торренты   Автор   Торрент   Размер 
В этой теме нет новых непрочитанных сообщений. Гончие любви / Hounds of Love [ужасы, триллер, драма, криминал, 2016] HDRip, Mvo

salma3

73 | 23

1.46 ГБ

В этой теме нет новых непрочитанных сообщений. Гончие любви / Hounds of Love [ужасы, триллер, драма, 2016] HDRip, Mvo

salma3

37 | 1

1.37 ГБ

В этой теме нет новых непрочитанных сообщений. Море любви / Sea of Love [Триллер, драма, криминал, 1989] BDRemux 1080p, Mvo

salma3

28 | 67

39.45 ГБ

В этой теме нет новых непрочитанных сообщений. Возмездие: История любви / Vengeance: A Love Story [триллер, 2017] BDRip 1080p, Mvo

salma3

438 | 66

7.89 ГБ

В этой теме нет новых непрочитанных сообщений. Мое лето любви / My Summer of Love [Драма, мелодрама, 2004] WEB-DL 1080p, Dvo

salma3

14 | 1

8.21 ГБ

В этой теме нет новых непрочитанных сообщений. Богатство в любви / Rich in Love [драма, 1992] HDTVRip 1080p, Dvo

salma3

0 | 0

7.45 ГБ

В этой теме нет новых непрочитанных сообщений. Лицо любви / The Face of Love [Драма, мелодрама, 2013] BDRip 1080p, Mvo

salma3

84 | 44

6.44 ГБ


Начать новую тему Ответить на тему  [ 1 сообщение ] 




Для Мосгорсуда, Роскомнадзора и рекламодателей:: mosgorsud-torrent[собачка]yandex.ru