Торрент файл
скачать торрент магнет ссылка Добавлен: 14 май 2017, 20:46
Размер: 3.64 ГБ
Сидеров: 66
Личеров: 32
Статус: (salma3)
Автор

СообщениеДобавлено: 14 май 2017, 20:46 

Не в сети
Супермодератор
Аватара пользователя
Дата регистрации:
15 фев 2012, 16:44
Возраст: 28
Спасибо: 6915 / 2147
Сообщения: 52605
Год выхода: 2005
Жанр: комедия, криминал
Режиссер: Дин Паризо

В ролях: Джим Керри, Теа Леони, Алек Болдуин, Ричард Дженкинс, Энджи Хармон, Джон Майкл Хиггинс, Ричард Берджи, Карлос Джекотт, Аарон Майкл Дрозин, Глория Гараюа

О фильме:
Дик Харпер и его молодая жена Джейн привыкли жить красиво. Но в тот момент, когда они затевают строительство бассейна, Дика неожиданно увольняют, оставив его с непогашенной задолжностью за дом в $70 тыс. Понимая, что долго скрывать от соседей бедственность своего положения им не удастся, парочка начинает промышлять мелким грабежом, постепенно входя во вкус.



Страна: США
Студия: Columbia Pictures Corporation, Imagine Entertainment, JC 23 Entertainment
Продолжительность: 01:30:18
Перевод: Профессиональный (дублированный) iTunes Russia/Невафильм + Профессиональный (двухголосый, закадровый) Tycoon + Профессиональный (двухголосый, закадровый) П.Гланц и И.Королева + Профессиональный (многоголосый, закадровый) 1+1

Релиз:

Файл
Качество: WEB-DL 720p
Формат: Matroska
Видео: 1280x720 at 23.976 fps, MPEG-4 AVC, ~4000 kbps avg
Aудио#1: Russian: 48 kHz, AC3, 3/2 (L,C,R,l,r) + LFE ch, ~384 kbps avg |Дубляж, iTunes Russia/Невафильм|
Aудио#2: Russian: 48 kHz, AC3, 3/2 (L,C,R,l,r) + LFE ch, ~448 kbps avg |Двухголосый закадровый, Tycoon|
Aудио#3: Russian: 48 kHz, AC3, 3/2 (L,C,R,l,r) + LFE ch, ~448 kbps avg |Двухголосый закадровый, П.Гланц и И.Королева|
Aудио#4: Ukrainian: 48 kHz, AC3, 2/0 (L,R) ch, ~192 kbps avg |Многоголосый закадровый, 1+1|
Aудио#5: English: 48 kHz, AC3, 3/2 (L,C,R,l,r) + LFE ch, ~384 kbps avg
Субтитры: Russian, English

***Сохранены оригинальные главы.

Режиссером данного проекта должен был стать Барри Зонненфельд, но ему пришлось покинуть картину в связи с личными проблемами.
Роль Джейн предназначалась для Кэмерон Диаз. Незадолго до начала съемок актриса отказалась от участия ввиду насыщенного съемочного графика.
[*]Кинокомпания «Paramount Pictures» выплатила студии «Sony» неустойку размером свыше 100 тысяч долларов за сдвиг сроков примерно на неделю. Задержка была вызвана отсутствием Джима Керри на съемочной площадке. В это время Джим был задействован в промо-кампании картины «Лемони Сникет: 33 несчастья».
Общее
Уникальный идентификатор : 222110840108310222844453712336303070816 (0xA718FDE63223A34C92C2EB1B0DFE9E60)
Полное имя : Fun.with.Dick.and.Jane.2005.720p.WEB-DL.3xRus.Ukr.Eng.mkv
Формат : Matroska
Версия формата : Version 4 / Version 2
Размер файла : 3,64 Гбайт
Продолжительность : 1 ч. 30 м.
Общий поток : 5767 Кбит/сек
Название фильма : Release by spartanec163
Дата кодирования : UTC 2015-04-27 15:31:00
Программа кодирования : mkvmerge v7.4.0 ('Circles') 64bit built on Dec 12 2014 12:19:56
Библиотека кодирования : libebml v1.3.0 + libmatroska v1.4.1

Видео
Идентификатор : 1
Формат : AVC
Формат/Информация : Advanced Video Codec
Профиль формата : High@L3.1
Параметр CABAC формата : Нет
Параметр ReFrames формата : 2 кадра
Идентификатор кодека : V_MPEG4/ISO/AVC
Продолжительность : 1 ч. 30 м.
Битрейт : 3796 Кбит/сек
Ширина : 1280 пикселей
Высота : 720 пикселей
Соотношение сторон : 16:9
Режим частоты кадров : Постоянный
Частота кадров : 23,976 кадра/сек
Цветовое пространство : YUV
Субдискретизация насыщенности : 4:2:0
Битовая глубина : 8 бит
Тип развёртки : Прогрессивная
Бит/(Пиксели*Кадры) : 0.172
Размер потока : 2,39 Гбайт (66%)
Заголовок : WEB-DL 720p (Rus iTunes)
Язык : English
Default : Да
Forced : Нет
Основные цвета : BT.709
Характеристики трансфера : BT.709
Коэффициенты матрицы : BT.709

Аудио #1
Идентификатор : 2
Формат : AC-3
Формат/Информация : Audio Coding 3
Расширение режима : CM (complete main)
Параметр Endianness формата : Big
Идентификатор кодека : A_AC3
Продолжительность : 1 ч. 30 м.
Вид битрейта : Постоянный
Битрейт : 384 Кбит/сек
Каналы : 6 каналов
Расположение каналов : Front: L C R, Side: L R, LFE
Частота : 48,0 КГц
Битовая глубина : 16 бит
Метод сжатия : С потерями
Размер потока : 248 Мбайт (7%)
Заголовок : AC3 5.1 384Kbps (Дубляж, iTunes)
Язык : Russian
Default : Да
Forced : Нет

Аудио #2
Идентификатор : 3
Формат : AC-3
Формат/Информация : Audio Coding 3
Расширение режима : CM (complete main)
Параметр Endianness формата : Big
Идентификатор кодека : A_AC3
Продолжительность : 1 ч. 30 м.
Вид битрейта : Постоянный
Битрейт : 448 Кбит/сек
Каналы : 6 каналов
Расположение каналов : Front: L C R, Side: L R, LFE
Частота : 48,0 КГц
Битовая глубина : 16 бит
Метод сжатия : С потерями
Размер потока : 289 Мбайт (8%)
Заголовок : AC3 5.1 448Kbps (Профессиональный, двухголосый - Tycoon)
Язык : Russian
Default : Нет
Forced : Нет

Аудио #3
Идентификатор : 4
Формат : AC-3
Формат/Информация : Audio Coding 3
Расширение режима : CM (complete main)
Параметр Endianness формата : Big
Идентификатор кодека : A_AC3
Продолжительность : 1 ч. 30 м.
Вид битрейта : Постоянный
Битрейт : 448 Кбит/сек
Каналы : 6 каналов
Расположение каналов : Front: L C R, Side: L R, LFE
Частота : 48,0 КГц
Битовая глубина : 16 бит
Метод сжатия : С потерями
Размер потока : 289 Мбайт (8%)
Заголовок : AC3 5.1 448Kbps (Профессиональный, двухголосый - П.Гланц и И.Королева)
Язык : Russian
Default : Нет
Forced : Нет

Аудио #4
Идентификатор : 5
Формат : AC-3
Формат/Информация : Audio Coding 3
Расширение режима : CM (complete main)
Параметр Endianness формата : Big
Идентификатор кодека : A_AC3
Продолжительность : 1 ч. 30 м.
Вид битрейта : Постоянный
Битрейт : 192 Кбит/сек
Каналы : 2 канала
Расположение каналов : Front: L R
Частота : 48,0 КГц
Битовая глубина : 16 бит
Метод сжатия : С потерями
Размер потока : 124 Мбайт (3%)
Заголовок : AC3 2.0 192Kbps (Профессиональный, многоголосый - 1+1)
Язык : Ukrainian
Default : Нет
Forced : Нет

Аудио #5
Идентификатор : 6
Формат : AC-3
Формат/Информация : Audio Coding 3
Расширение режима : CM (complete main)
Параметр Endianness формата : Big
Идентификатор кодека : A_AC3
Продолжительность : 1 ч. 30 м.
Вид битрейта : Постоянный
Битрейт : 384 Кбит/сек
Каналы : 6 каналов
Расположение каналов : Front: L C R, Side: L R, LFE
Частота : 48,0 КГц
Битовая глубина : 16 бит
Метод сжатия : С потерями
Размер потока : 248 Мбайт (7%)
Заголовок : AC3 5.1 384Kbps (Оригинал)
Язык : English
Default : Нет
Forced : Нет

Текст #1
Идентификатор : 7
Формат : UTF-8
Идентификатор кодека : S_TEXT/UTF8
Идентификатор кодека/Информация : UTF-8 Plain Text
Язык : Russian
Default : Нет
Forced : Нет

Текст #2
Идентификатор : 8
Формат : UTF-8
Идентификатор кодека : S_TEXT/UTF8
Идентификатор кодека/Информация : UTF-8 Plain Text
Язык : English
Default : Нет
Forced : Нет

Меню
00:00:00.000 : en:1
00:07:52.000 : en:2
00:14:11.000 : en:3
00:21:28.000 : en:4
00:27:53.000 : en:5
00:33:07.000 : en:6
00:43:40.000 : en:7
00:50:05.000 : en:8
00:57:40.000 : en:9
00:59:56.000 : en:10
01:04:27.000 : en:11
01:08:24.000 : en:12
01:13:41.000 : en:13
01:16:57.000 : en:14
01:20:29.000 : en:15
01:23:45.000 : en:16


_________________
Проголосуй за трекер Открытый торрент трекер - RUS-MEDIA.ORG

Проголосуй Открытый торрент трекер - RUS-MEDIA.ORG



реклама партнёра


Вернуться к началу
 Профиль Отправить личное сообщение  
 
   Похожие торренты   Автор   Торрент   Размер 
В этой теме нет новых непрочитанных сообщений. Аферисты Дик и Джейн / Fun with Dick and Jane [комедия, криминал, 2005] HDRip, Dub

salma3

86 | 18

1.45 ГБ

В этой теме нет новых непрочитанных сообщений. Солдат Джейн / G.I. Jane [боевик, драма, военный, 1997] BDRip 720p, Mvo+Avo+Sub

salma3

52 | 12

5.75 ГБ

В этой теме нет новых непрочитанных сообщений. Аферисты / Criminal [триллер, драма, комедия, криминал. 2004] WEB-DL 720p, Mvo+Dvo+Sub

salma3

140 | 35

3.36 ГБ

В этой теме нет новых непрочитанных сообщений. Джейн и потерянный город / Jane and the Lost City [Комедия, приключения, 1987] DVDRip, Dvo

salma3

63 | 0

1.46 ГБ

В этой теме нет новых непрочитанных сообщений. Джейн хочет бойфренда / Jane Wants a Boyfriend (Уилльям Салливан / William Sullivan) [2015г., драма, мелодрама, комедия, WEB-DLRip] mvo

Alfredovich

96 | 2

1.37 ГБ

В этой теме нет новых непрочитанных сообщений. Солдат Джейн / G.I. Jane [боевик, драма, 1997] HDRip, Mvo

salma3

72 | 14

1.45 ГБ

В этой теме нет новых непрочитанных сообщений. Джейн Остин / Becoming Jane [драма, мелодрама, биография, 2007] BDRip-AVC, Dub

salma3

26 | 17

1.45 ГБ


Начать новую тему Ответить на тему  [ 1 сообщение ] 




Для Мосгорсуда, Роскомнадзора и рекламодателей:: mosgorsud-torrent[собачка]yandex.ru
cron