Торрент файл
скачать торрент магнет ссылка Добавлен: 11 май 2017, 11:30
Размер: 7.46 ГБ
Сидеров: 2011
Личеров: 660
Статус: (salma3)
Автор

СообщениеДобавлено: 11 май 2017, 11:30 

Не в сети
Супермодератор
Аватара пользователя
Дата регистрации:
15 фев 2012, 16:44
Возраст: 28
Спасибо: 7224 / 2147
Сообщения: 67920
Год выхода: 2016
Жанр: Драма, история
Режиссер: Мартин Скорсезе

В ролях: Эндрю Гарфилд, Адам Драйвер, Лиам Нисон, Таданобу Асано, Киаран Хайндс, Иссэй Огата, Синья Цукамото, Ёси Оида, Есуке Кубодзука, Каору Эндо

О фильме:
В середине 17 века два миссионера-иезуита, Родригес и Гарупе, отправляются в Японию, чтобы найти своего учителя - бесследно исчезнувшего католического священника отца Феррейру. Ходят упорные слухи, что Феррейра не погиб, а отрекся от своей веры и даже женился на местной девушке. Прибыв на остров Кюсю, миссионеры оказываются в самом центре гонений японских властей на христиан, однако находят приют в провинциальной деревушке, жители которой тайно исповедуют католичество. Очутившись в пекле религиозной борьбы, отец Родригес все больше запутывается и сомневается в собственной вере. Вскоре весть о непрошенных гостях доходит до главного притеснителя христиан, который называет сам себя «инквизитором», и для поимки священников в деревушку отправляется вооруженный отряд



Страна: Мексика, Тайвань, США
Продолжительность: 02:41:09
Перевод: Дублированный | iTunes

Файл
Качество: BDRip 720p
Видео: MPEG-4 AVC, 1280x536, 5598 Kbit/s, 23.976 fps
Звук:
Аудио #01: 48 kHz, AC3, 5.1, 384 Kbps | Дублированный | iTunes | RUS |
Аудио #02: 48 kHz, AC3, 5.1, 640 Kbps | Оригинал | ENG |
Субтитры: Русские (forced, full), английские (full, SDH, SDH Colored)

General
Unique ID : 237432731526128336919978190546461887101 (0xB29FE17855316736B0F4604A967D8A7D)
Complete name : F:VideoSilence.2016.BDRip.720p.ExKinoRay.mkv
Format : Matroska
Format version : Version 4 / Version 2
File size : 7.46 GiB
Duration : 2 h 41 min
Overall bit rate : 6 625 kb/s
Encoded date : UTC 2017-05-10 13:16:14
Writing application : mkvmerge v11.0.0 ('Alive') 64bit
Writing library : libebml v1.3.4 + libmatroska v1.4.5
Cover : Yes
Attachments : cover.jpg
Video
ID : 1
Format : AVC
Format/Info : Advanced Video Codec
Format profile : High@L4.1
Format settings, CABAC : Yes
Format settings, ReFrames : 12 frames
Codec ID : V_MPEG4/ISO/AVC
Duration : 2 h 41 min
Bit rate : 5 598 kb/s
Width : 1 280 pixels
Height : 536 pixels
Display aspect ratio : 2.40:1
Frame rate mode : Constant
Frame rate : 23.976 (24000/1001) FPS
Color space : YUV
Chroma subsampling : 4:2:0
Bit depth : 8 bits
Scan type : Progressive
Bits/(Pixel*Frame) : 0.340
Stream size : 6.30 GiB (85%)
Writing library : x264 core 148 r2744kMod b97ae06
Encoding settings : cabac=1 / ref=12 / deblock=1:-3:-3 / analyse=0x3:0x133 / me=umh / subme=10 / psy=1 / fade_compensate=0.00 / psy_rd=0.94:0.00 / mixed_ref=1 / me_range=32 / chroma_me=1 / trellis=2 / 8x8dct=1 / cqm=0 / deadzone=21,11 / fast_pskip=1 / chroma_qp_offset=-2 / threads=3 / lookahead_threads=1 / sliced_threads=0 / nr=0 / decimate=1 / interlaced=0 / bluray_compat=0 / constrained_intra=0 / bframes=11 / b_pyramid=2 / b_adapt=2 / b_bias=0 / direct=3 / weightb=1 / open_gop=0 / weightp=2 / keyint=250 / keyint_min=23 / scenecut=40 / intra_refresh=0 / rc=crf / mbtree=0 / crf=16.4000 / qcomp=0.71 / qpmin=0 / qpmax=69 / qpstep=4 / ip_ratio=1.27 / pb_ratio=1.24 / aq=3:0.73 / zones=539,1584,crf=13.5/23884,25204,crf=14.5/33837,34341,crf=14.5/47991,49318,crf=1.5/49319,50364,crf=13.5/59823,62151,crf=14.5/90255,92271,crf=14.5/189732,189972,crf=13.5/199955,200262,crf=13.5/220818,221534,crf=14.5
Language : English
Default : Yes
Forced : No
Audio #1
ID : 2
Format : AC-3
Format/Info : Audio Coding 3
Format settings, Endianness : Big
Codec ID : A_AC3
Duration : 2 h 41 min
Bit rate mode : Constant
Bit rate : 384 kb/s
Channel(s) : 6 channels
Channel positions : Front: L C R, Side: L R, LFE
Sampling rate : 48.0 kHz
Frame rate : 31.250 FPS (1536 spf)
Bit depth : 16 bits
Compression mode : Lossy
Stream size : 442 MiB (6%)
Title : iTunes
Language : Russian
Service kind : Complete Main
Default : Yes
Forced : No
Audio #2
ID : 3
Format : AC-3
Format/Info : Audio Coding 3
Format settings, Endianness : Big
Codec ID : A_AC3
Duration : 2 h 41 min
Bit rate mode : Constant
Bit rate : 640 kb/s
Channel(s) : 6 channels
Channel positions : Front: L C R, Side: L R, LFE
Sampling rate : 48.0 kHz
Frame rate : 31.250 FPS (1536 spf)
Bit depth : 16 bits
Compression mode : Lossy
Stream size : 738 MiB (10%)
Title : Original
Language : English
Service kind : Complete Main
Default : No
Forced : No
Text #1
ID : 4
Format : UTF-8
Codec ID : S_TEXT/UTF8
Codec ID/Info : UTF-8 Plain Text
Duration : 2 h 35 min
Bit rate : 0 b/s
Count of elements : 3
Stream size : 182 Bytes (0%)
Title : Forced
Language : Russian
Default : Yes
Forced : No
Text #2
ID : 5
Format : UTF-8
Codec ID : S_TEXT/UTF8
Codec ID/Info : UTF-8 Plain Text
Duration : 2 h 33 min
Bit rate : 73 b/s
Count of elements : 1297
Stream size : 82.9 KiB (0%)
Title : Full
Language : Russian
Default : No
Forced : No
Text #3
ID : 6
Format : UTF-8
Codec ID : S_TEXT/UTF8
Codec ID/Info : UTF-8 Plain Text
Duration : 2 h 31 min
Bit rate : 42 b/s
Count of elements : 1492
Stream size : 46.6 KiB (0%)
Title : Full
Language : English
Default : No
Forced : No
Text #4
ID : 7
Format : UTF-8
Codec ID : S_TEXT/UTF8
Codec ID/Info : UTF-8 Plain Text
Duration : 2 h 33 min
Bit rate : 47 b/s
Count of elements : 1787
Stream size : 53.9 KiB (0%)
Title : SDH
Language : English
Default : No
Forced : No
Text #5
ID : 8
Format : UTF-8
Codec ID : S_TEXT/UTF8
Codec ID/Info : UTF-8 Plain Text
Duration : 2 h 34 min
Bit rate : 60 b/s
Count of elements : 1789
Stream size : 69.0 KiB (0%)
Title : SDH Colored
Language : English
Default : No
Forced : No
Menu
00:00:00.000 : en:Chapter 01
00:12:59.904 : en:Chapter 02
00:22:15.793 : en:Chapter 03
00:33:21.708 : en:Chapter 04
00:41:58.975 : en:Chapter 05
00:51:14.029 : en:Chapter 06
01:03:15.291 : en:Chapter 07
01:10:57.128 : en:Chapter 08
01:22:59.099 : en:Chapter 09
01:30:19.914 : en:Chapter 10
01:41:49.645 : en:Chapter 11
01:47:57.012 : en:Chapter 12
01:54:46.546 : en:Chapter 13
02:10:37.163 : en:Chapter 14
02:19:11.051 : en:Chapter 15
02:34:22.378 : en:Chapter 16

Релиз от: Автор релиза:


_________________
Проголосуй за трекер Открытый торрент трекер - RUS-MEDIA.ORG

Проголосуй Открытый торрент трекер - RUS-MEDIA.ORG


Вернуться к началу
 Профиль Отправить личное сообщение  
 
   Похожие торренты   Автор   Торрент   Размер 
В этой теме нет новых непрочитанных сообщений. Молчание / Silence [Драма, история, 2016] BDRip, Dub [iTunes]

salma3

10298 | 2046

1.46 ГБ

В этой теме нет новых непрочитанных сообщений. Молчание / Silence [Драма, история, 2016] BDRip 1080p, Dub [iTunes]

salma3

1682 | 646

12.45 ГБ

В этой теме нет новых непрочитанных сообщений. Молчание / Silence [драма, приключения, история, 2016] BDRemux 1080p, Dub [iTunes]

salma3

164 | 190

38.92 ГБ

В этой теме нет новых непрочитанных сообщений. Молчание / Silence [драма, история, 2016] WEB-DLRip 720p, Mvo

salma3

0 | 0

4.96 ГБ

В этой теме нет новых непрочитанных сообщений. Молчание / Silence [драма, история, 2016] WEB-DLRip, Mvo

salma3

0 | 0

1.37 ГБ

В этой теме нет новых непрочитанных сообщений. Молчание / Silence [драма, история, 2016] WEB-DLRip, Mvo

salma3

0 | 0

2.74 ГБ

В этой теме нет новых непрочитанных сообщений. Молчание / Silence [драма, история, 2016] WEB-DLRip 1080p, Mvo

salma3

824 | 442

5.87 ГБ


Начать новую тему Ответить на тему  [ 1 сообщение ] 




Для Мосгорсуда, Роскомнадзора и рекламодателей:: mosgorsud-torrent[собачка]yandex.ru
cron